Видео


Сообщение

Видео Питание малыша с 4 до 12 месяцев (2009) DVDRip

Сообщение Нюша » 16 дек 2012, 18:25

Питание малыша с 4 до 12 месяцев (2009) DVDRip

Русское название: Питание малыша с 4 до 12 месяцев
Год выпуска: 2009
Производство: Латвия
Жанр: Для родителей, Видеоуроки, Обучающий

Перевод: Одноголосый закадровый, профессиональный
Вид субтитров: Отсутствуют
Участники: Коллектив авторов

Описание фильма:
Питание в очень большой мере определяет развитие маленького человечка на 1-ом году жизни. Поэтому мы подготовили этот фильм, чтобы обозначить молодым родителям направляющие линии детского рациона. Мамы узнают, как начать первый прикорм, как кормить ребенка в возрасте до годика и как самостоятельно готовить малышам вкусную и полезную еду.
Формат: AVI
Формат/Информация: Audio Video Interleave
Размер файла: 376 Мбайт
Продолжительность: 33 м.
Общий поток: 1573 Кбит/сек
Программа кодирования: Lavf51.6.0

Видео
Идентификатор: 0
Формат: MPEG-4 Visual
Профиль формата: Simple@L3
Параметр BVOP формата: Нет
Параметр QPel формата: Нет
Параметр GMC формата: Без точки перехода
Параметр матрицы формата: Default (H.263)
Идентификатор кодека: XVID
Идентификатор кодека/Подсказка: XviD
Продолжительность: 33 м.
Битрейт: 1400 Кбит/сек
Ширина: 640 пикселей
Высота: 480 пикселей
Соотношение сторон: 4:3
Частота кадров: 25,000 кадров/сек
Цветовое пространство: YUV
Субдискретизация насыщенности: 4:2:0
Битовая глубина: 8 бит
Тип развёртки: Прогрессивная
Метод сжатия: С потерями
Бит/(Пиксели*Кадры): 0.182
Размер потока: 335 Мбайт (89%)
Библиотека кодирования: XviD 1.1.0 (UTC 2005-11-22)

Аудио
Идентификатор: 1
Формат: MPEG Audio
Версия формата: Version 1
Профиль формата: Layer 3
Режим: Joint stereo
Расширение режима: MS Stereo
Идентификатор кодека: 55
Идентификатор кодека/Подсказка: MP3
Продолжительность: 33 м.
Вид битрейта: Постоянный
Битрейт: 160 Кбит/сек
Каналы: 2 канала
Частота: 48,0 КГц
Метод сжатия: С потерями
Размер потока: 38,2 Мбайт (10%)
Выравнивание: Соединение по промежуткам
Продолжительность промежутка: 24мс. (0,60 видеокадр)
Библиотека кодирования: LAME3.96.1
Продолжительность: 00:33:00
Качество видео: DVDRip

Видеокодек: Xvid
Битрейт видео: ~1400 Кбит/сек
Размер кадра: 640х480
Аудиокодек: MP3, 2 канала
Битрейт аудио: 160 Кбит/сек

Скриншоты:



Время раздачи: с 18:00 до 23:00 до 5 скачавших

Постеры

Соцсети

 

Вернуться в Развитие и воспитание детей (0-5 лет)



Кто сейчас на конференции

Сейчас эту тему просматривают: CCBot и гости: 0