Видео


Сообщение

Видео Детское меню (1-3, 24, 26-32, 34-38, 40-43 серии) (2011-2012) SATRip

Сообщение Нюша » 16 дек 2012, 18:26

Детское меню (1-3, 24, 26-32, 34-38, 40-43 серии) (2011-2012) SATRip

Русское название: Детское меню
Год выпуска: 2011-2012
Выпущено: Россия, "Мать и дитя"
Жанр: Для родителей
Режиссер: Иван Суханов
Ведущий: Лика Длугач

Описание фильма:

Как разнообразить питание ребенка, улучшить аппетит и сохранить при этом максимально полезный рацион? Об этом вы узнаете в новой программе «Детское меню». Ведущая программы настоящий эксперт в вопросах детского питания. В каждой программе она готовит несколько блюд для детей, делится собственными рецептами и маленькими кулинарными секретами. Процесс приготовления сопровождается увлекательными историями из жизни детей.

Продолжительность: 20 x ~00:25:00
Качество видео: SATRip

Видеокодек: Xvid
Битрейт видео: ~1500 kb/s
Размер кадра: 704x400, 704x528, 720x400
Аудиокодек: MP3, 2 ch
Битрейт аудио: 128 kb/s
Выпуск 1

1. Суп с фрикадельками
2. Творожники с морковкой
3. Компот

Выпуск 2

1. Суп-пюре из тыквы со сливками
2. Котлетки на пару
3. Гренка
4. Соус

Выпуск 3

1. Суп куриный с домашней лапшой
2. Мясные шарики с макаронами
3. Клюквенный морс

Выпуск 24

1. Пирог с курицей и брынзой
2. Омлет с цуккини
3. Вишневый компот

Выпуск 26

1. Вареники с творогом
2. Домашний сыр
3. Детский гоголь-моголь

Выпуск 27

1. Фаршированный картофель
2. Рисовая каша с яблоком
3. Котлетки паровые

Выпуск 28

1. Пирог с черешней
2. Салат с перепелиными яйцами и авокадо
3. Яблочно-морковный сок

Выпуск 29

1. Торт из печенья и творога
2. Фруктовые канапе
3. Чай с клюквой и мятой

Выпуск 30

1. Куриные ножки в сливочном соусе с тимьяном
2. Булочки с корицей
3. Чай с майораном

Выпуск 31

1. Бургеры с котлетой из индейки с овощами
2. Мини-пиццы
3. Молочный коктейль с мороженным

Выпуск 32

1. Лазанья со шпинатом
2. Чечевичный суп
3. Горячий шоколад

Выпуск 34

1. Индейка отварная с соусом
2. Запеканка картофельная с рисом
3. Мармелад яблочный с орехами

Выпуск 35

1. Крем-суп из лосося
2. Яблочно-карамельный десерт
3. Фетучини с креветками

Выпуск 36

1. Морковный крем-суп
2. Смузи с черникой и бананом
3. Оладьи с черникой и джемом

Выпуск 37

1. Печеночный паштет
2. Омлет с брокколи
3. Сливочно-фруктовый десерт

Выпуск 38

1. Коржики
2. Салат из индейки с помидорами
3. Гранатовый смузи

Выпуск 40

1. Фокачча
2. Детская "уха" с фрикадельками
3. Клубничный десерт со сливками

Выпуск 41

1. Рагу из телятины и молодых овощей
2. Салат из цветной капусты и редиса
3. Ягодные смузи с йогуртом

Выпуск 42

1. Салат из индейки с помидорами
2. Пита с фрикадельками из индейки
3. Чай в термосе

Выпуск 43

1. Окрошка на фруктовом отваре.
2. Вишневое мороженное.
3. Малиновый лимонад.
Общее
Полное имя: F:\Детское меню. 2011-2012 .XviD.SATRip\Detskoe.menju.(1.serija).2011.XviD.SATRip.avi
Формат: AVI
Формат/Информация: Audio Video Interleave
Размер файла: 281 Мбайт
Продолжительность: 24 м.
Общий поток: 1576 Кбит/сек
Программа кодирования: VirtualDubMod 1.5.10.2 (build 2540/release)
Библиотека кодирования: VirtualDubMod build 2540/release

Видео
Идентификатор: 0
Формат: MPEG-4 Visual
Профиль формата: Advanced Simple@L5
Параметр BVOP формата: 2
Параметр QPel формата: Нет
Параметр GMC формата: Без точки перехода
Параметр матрицы формата: Default (H.263)
Режим смешивания: Сжатый битовый поток
Идентификатор кодека: XVID
Идентификатор кодека/Подсказка: XviD
Продолжительность: 24 м.
Битрейт: 1438 Кбит/сек
Ширина: 704 пикс.
Высота: 400 пикс.
Соотношение сторон: 16:9
Частота кадров: 25,000 кадр/сек
Цветовое пространство: YUV
Подвыборка цветности: 4:2:0
Битовая глубина: 8 бит
Тип развёртки: Прогрессивная
Метод сжатия: С потерями
Бит/(Пиксели*Кадры): 0.204
Размер потока: 256 Мбайт (91%)
Библиотека кодирования: XviD 1.2.1 (UTC 2008-12-04)

Аудио
Идентификатор: 1
Формат: MPEG Audio
Версия формата: Version 1
Профиль формата: Layer 3
Режим: Joint stereo
Расширение режима: MS Stereo
Идентификатор кодека: 55
Идентификатор кодека/Подсказка: MP3
Продолжительность: 24 м.
Вид битрейта: Постоянный
Битрейт: 128 Кбит/сек
Канал(ы): 2 канала(ов)
Частота: 48,0 КГц
Метод сжатия: С потерями
Размер потока: 22,8 Мбайт (8%)
Выравнивание: Соединение по промежуткам
Продолжительность промежутка: 40мс. (1,00 видеокадр)
Время предзагрузки промежутка: 504 ms

Общее
Полное имя: F:\Детское меню. 2011-2012 .XviD.SATRip\Detskoe.menju.(2.serija).2011.XviD.SATRip.avi
Формат: AVI
Формат/Информация: Audio Video Interleave
Размер файла: 280 Мбайт
Продолжительность: 25 м.
Общий поток: 1551 Кбит/сек
Программа кодирования: VirtualDubMod 1.5.10.2 (build 2540/release)
Библиотека кодирования: VirtualDubMod build 2540/release

Видео
Идентификатор: 0
Формат: MPEG-4 Visual
Профиль формата: Advanced Simple@L5
Параметр BVOP формата: 2
Параметр QPel формата: Нет
Параметр GMC формата: Без точки перехода
Параметр матрицы формата: Default (H.263)
Режим смешивания: Сжатый битовый поток
Идентификатор кодека: XVID
Идентификатор кодека/Подсказка: XviD
Продолжительность: 25 м.
Битрейт: 1413 Кбит/сек
Ширина: 704 пикс.
Высота: 400 пикс.
Соотношение сторон: 16:9
Частота кадров: 25,000 кадр/сек
Цветовое пространство: YUV
Подвыборка цветности: 4:2:0
Битовая глубина: 8 бит
Тип развёртки: Прогрессивная
Метод сжатия: С потерями
Бит/(Пиксели*Кадры): 0.201
Размер потока: 255 Мбайт (91%)
Библиотека кодирования: XviD 1.2.1 (UTC 2008-12-04)

Аудио
Идентификатор: 1
Формат: MPEG Audio
Версия формата: Version 1
Профиль формата: Layer 3
Режим: Joint stereo
Расширение режима: MS Stereo
Идентификатор кодека: 55
Идентификатор кодека/Подсказка: MP3
Продолжительность: 25 м.
Вид битрейта: Постоянный
Битрейт: 128 Кбит/сек
Канал(ы): 2 канала(ов)
Частота: 48,0 КГц
Метод сжатия: С потерями
Задержка видео: 168 мс.
Размер потока: 23,1 Мбайт (8%)
Выравнивание: Соединение по промежуткам
Продолжительность промежутка: 40мс. (1,00 видеокадр)
Время предзагрузки промежутка: 504 ms

Общее
Полное имя: F:\Детское меню. 2011-2012 .XviD.SATRip\Detskoe.menju.(24.serija).2011.XviD.SATRip.avi
Формат: AVI
Формат/Информация: Audio Video Interleave
Размер файла: 341 Мбайт
Продолжительность: 25 м.
Общий поток: 1870 Кбит/сек
Программа кодирования: VirtualDubMod 1.5.10.2 (build 2540/release)
Библиотека кодирования: VirtualDubMod build 2540/release

Видео
Идентификатор: 0
Формат: MPEG-4 Visual
Профиль формата: Advanced Simple@L5
Параметр BVOP формата: 2
Параметр QPel формата: Нет
Параметр GMC формата: Без точки перехода
Параметр матрицы формата: Default (H.263)
Режим смешивания: Сжатый битовый поток
Идентификатор кодека: XVID
Идентификатор кодека/Подсказка: XviD
Продолжительность: 25 м.
Битрейт: 1732 Кбит/сек
Ширина: 704 пикс.
Высота: 528 пикс.
Соотношение сторон: 4:3
Частота кадров: 25,000 кадр/сек
Цветовое пространство: YUV
Подвыборка цветности: 4:2:0
Битовая глубина: 8 бит
Тип развёртки: Прогрессивная
Метод сжатия: С потерями
Бит/(Пиксели*Кадры): 0.186
Размер потока: 316 Мбайт (93%)
Библиотека кодирования: XviD 64

Аудио
Идентификатор: 1
Формат: MPEG Audio
Версия формата: Version 1
Профиль формата: Layer 3
Режим: Joint stereo
Расширение режима: MS Stereo
Идентификатор кодека: 55
Идентификатор кодека/Подсказка: MP3
Продолжительность: 25 м.
Вид битрейта: Постоянный
Битрейт: 128 Кбит/сек
Канал(ы): 2 канала(ов)
Частота: 48,0 КГц
Метод сжатия: С потерями
Размер потока: 23,3 Мбайт (7%)
Выравнивание: Соединение по промежуткам
Продолжительность промежутка: 40мс. (1,00 видеокадр)
Время предзагрузки промежутка: 504 ms

Общее
Полное имя: F:\Детское меню. 2011-2012 .XviD.SATRip\Detskoe.menju.(26.serija).2012.XviD.SATRip.avi
Формат: AVI
Формат/Информация: Audio Video Interleave
Размер файла: 270 Мбайт
Продолжительность: 26 м.
Общий поток: 1449 Кбит/сек
Программа кодирования: VirtualDubMod 1.5.10.2 (build 2540/release)
Библиотека кодирования: VirtualDubMod build 2540/release

Видео
Идентификатор: 0
Формат: MPEG-4 Visual
Профиль формата: Advanced Simple@L5
Параметр BVOP формата: 2
Параметр QPel формата: Нет
Параметр GMC формата: Без точки перехода
Параметр матрицы формата: Default (H.263)
Режим смешивания: Сжатый битовый поток
Идентификатор кодека: XVID
Идентификатор кодека/Подсказка: XviD
Продолжительность: 26 м.
Битрейт: 1311 Кбит/сек
Ширина: 704 пикс.
Высота: 400 пикс.
Соотношение сторон: 16:9
Частота кадров: 25,000 кадр/сек
Цветовое пространство: YUV
Подвыборка цветности: 4:2:0
Битовая глубина: 8 бит
Тип развёртки: Прогрессивная
Метод сжатия: С потерями
Бит/(Пиксели*Кадры): 0.186
Размер потока: 245 Мбайт (90%)
Библиотека кодирования: XviD 64

Аудио
Идентификатор: 1
Формат: MPEG Audio
Версия формата: Version 1
Профиль формата: Layer 3
Режим: Joint stereo
Расширение режима: MS Stereo
Идентификатор кодека: 55
Идентификатор кодека/Подсказка: MP3
Продолжительность: 26 м.
Вид битрейта: Постоянный
Битрейт: 128 Кбит/сек
Канал(ы): 2 канала(ов)
Частота: 48,0 КГц
Метод сжатия: С потерями
Размер потока: 23,9 Мбайт (9%)
Выравнивание: Соединение по промежуткам
Продолжительность промежутка: 40мс. (1,00 видеокадр)
Время предзагрузки промежутка: 504 ms

Общее
Полное имя: F:\Детское меню. 2011-2012 .XviD.SATRip\Detskoe.menju.(27.serija).2012.XviD.SATRip.avi
Формат: AVI
Формат/Информация: Audio Video Interleave
Размер файла: 300 Мбайт
Продолжительность: 27 м.
Общий поток: 1514 Кбит/сек
Программа кодирования: VirtualDubMod 1.5.10.2 (build 2540/release)
Библиотека кодирования: VirtualDubMod build 2540/release

Видео
Идентификатор: 0
Формат: MPEG-4 Visual
Профиль формата: Advanced Simple@L5
Параметр BVOP формата: 2
Параметр QPel формата: Нет
Параметр GMC формата: Без точки перехода
Параметр матрицы формата: Default (H.263)
Режим смешивания: Сжатый битовый поток
Идентификатор кодека: XVID
Идентификатор кодека/Подсказка: XviD
Продолжительность: 27 м.
Битрейт: 1377 Кбит/сек
Ширина: 704 пикс.
Высота: 400 пикс.
Соотношение сторон: 16:9
Частота кадров: 25,000 кадр/сек
Цветовое пространство: YUV
Подвыборка цветности: 4:2:0
Битовая глубина: 8 бит
Тип развёртки: Прогрессивная
Метод сжатия: С потерями
Бит/(Пиксели*Кадры): 0.196
Размер потока: 273 Мбайт (91%)
Библиотека кодирования: XviD 64

Аудио
Идентификатор: 1
Формат: MPEG Audio
Версия формата: Version 1
Профиль формата: Layer 3
Режим: Joint stereo
Расширение режима: MS Stereo
Идентификатор кодека: 55
Идентификатор кодека/Подсказка: MP3
Продолжительность: 27 м.
Вид битрейта: Постоянный
Битрейт: 128 Кбит/сек
Канал(ы): 2 канала(ов)
Частота: 48,0 КГц
Метод сжатия: С потерями
Размер потока: 25,4 Мбайт (8%)
Выравнивание: Соединение по промежуткам
Продолжительность промежутка: 40мс. (1,00 видеокадр)
Время предзагрузки промежутка: 504 ms

Общее
Полное имя: F:\Детское меню. 2011-2012 .XviD.SATRip\Detskoe.menju.(28.serija).2012.XviD.SATRip.avi
Формат: AVI
Формат/Информация: Audio Video Interleave
Размер файла: 300 Мбайт
Продолжительность: 27 м.
Общий поток: 1521 Кбит/сек
Программа кодирования: VirtualDubMod 1.5.10.2 (build 2540/release)
Библиотека кодирования: VirtualDubMod build 2540/release

Видео
Идентификатор: 0
Формат: MPEG-4 Visual
Профиль формата: Advanced Simple@L5
Параметр BVOP формата: 2
Параметр QPel формата: Нет
Параметр GMC формата: Без точки перехода
Параметр матрицы формата: Default (H.263)
Режим смешивания: Сжатый битовый поток
Идентификатор кодека: XVID
Идентификатор кодека/Подсказка: XviD
Продолжительность: 27 м.
Битрейт: 1384 Кбит/сек
Ширина: 720 пикс.
Высота: 400 пикс.
Соотношение сторон: 16:9
Частота кадров: 25,000 кадр/сек
Цветовое пространство: YUV
Подвыборка цветности: 4:2:0
Битовая глубина: 8 бит
Тип развёртки: Прогрессивная
Метод сжатия: С потерями
Бит/(Пиксели*Кадры): 0.192
Размер потока: 273 Мбайт (91%)
Библиотека кодирования: XviD 64

Аудио
Идентификатор: 1
Формат: MPEG Audio
Версия формата: Version 1
Профиль формата: Layer 3
Режим: Joint stereo
Расширение режима: MS Stereo
Идентификатор кодека: 55
Идентификатор кодека/Подсказка: MP3
Продолжительность: 27 м.
Вид битрейта: Постоянный
Битрейт: 128 Кбит/сек
Канал(ы): 2 канала(ов)
Частота: 48,0 КГц
Метод сжатия: С потерями
Размер потока: 25,3 Мбайт (8%)
Выравнивание: Соединение по промежуткам
Продолжительность промежутка: 40мс. (1,00 видеокадр)
Время предзагрузки промежутка: 504 ms

Общее
Полное имя: F:\Детское меню. 2011-2012 .XviD.SATRip\Detskoe.menju.(29.serija).2012.XviD.SATRip.avi
Формат: AVI
Формат/Информация: Audio Video Interleave
Размер файла: 301 Мбайт
Продолжительность: 25 м.
Общий поток: 1663 Кбит/сек
Программа кодирования: VirtualDubMod 1.5.10.2 (build 2540/release)
Библиотека кодирования: VirtualDubMod build 2540/release

Видео
Идентификатор: 0
Формат: MPEG-4 Visual
Профиль формата: Advanced Simple@L5
Параметр BVOP формата: 2
Параметр QPel формата: Нет
Параметр GMC формата: Без точки перехода
Параметр матрицы формата: Default (H.263)
Режим смешивания: Сжатый битовый поток
Идентификатор кодека: XVID
Идентификатор кодека/Подсказка: XviD
Продолжительность: 25 м.
Битрейт: 1526 Кбит/сек
Ширина: 720 пикс.
Высота: 400 пикс.
Соотношение сторон: 16:9
Частота кадров: 25,000 кадр/сек
Цветовое пространство: YUV
Подвыборка цветности: 4:2:0
Битовая глубина: 8 бит
Тип развёртки: Прогрессивная
Метод сжатия: С потерями
Бит/(Пиксели*Кадры): 0.212
Размер потока: 276 Мбайт (92%)
Библиотека кодирования: XviD 64

Аудио
Идентификатор: 1
Формат: MPEG Audio
Версия формата: Version 1
Профиль формата: Layer 3
Режим: Joint stereo
Расширение режима: MS Stereo
Идентификатор кодека: 55
Идентификатор кодека/Подсказка: MP3
Продолжительность: 25 м.
Вид битрейта: Постоянный
Битрейт: 128 Кбит/сек
Канал(ы): 2 канала(ов)
Частота: 48,0 КГц
Метод сжатия: С потерями
Размер потока: 23,1 Мбайт (8%)
Выравнивание: Соединение по промежуткам
Продолжительность промежутка: 40мс. (1,00 видеокадр)
Время предзагрузки промежутка: 504 ms

Общее
Полное имя: F:\Детское меню. 2011-2012 .XviD.SATRip\Detskoe.menju.(3.serija).2011.XviD.SATRip.avi
Формат: AVI
Формат/Информация: Audio Video Interleave
Размер файла: 281 Мбайт
Продолжительность: 26 м.
Общий поток: 1499 Кбит/сек
Программа кодирования: VirtualDubMod 1.5.10.2 (build 2540/release)
Библиотека кодирования: VirtualDubMod build 2540/release

Видео
Идентификатор: 0
Формат: MPEG-4 Visual
Профиль формата: Advanced Simple@L5
Параметр BVOP формата: 2
Параметр QPel формата: Нет
Параметр GMC формата: Без точки перехода
Параметр матрицы формата: Default (H.263)
Режим смешивания: Сжатый битовый поток
Идентификатор кодека: XVID
Идентификатор кодека/Подсказка: XviD
Продолжительность: 26 м.
Битрейт: 1362 Кбит/сек
Ширина: 704 пикс.
Высота: 400 пикс.
Соотношение сторон: 16:9
Частота кадров: 25,000 кадр/сек
Цветовое пространство: YUV
Подвыборка цветности: 4:2:0
Битовая глубина: 8 бит
Тип развёртки: Прогрессивная
Метод сжатия: С потерями
Бит/(Пиксели*Кадры): 0.193
Размер потока: 255 Мбайт (91%)
Библиотека кодирования: XviD 1.2.1 (UTC 2008-12-04)

Аудио
Идентификатор: 1
Формат: MPEG Audio
Версия формата: Version 1
Профиль формата: Layer 3
Режим: Joint stereo
Расширение режима: MS Stereo
Идентификатор кодека: 55
Идентификатор кодека/Подсказка: MP3
Продолжительность: 26 м.
Вид битрейта: Постоянный
Битрейт: 128 Кбит/сек
Канал(ы): 2 канала(ов)
Частота: 48,0 КГц
Метод сжатия: С потерями
Размер потока: 24,0 Мбайт (9%)
Выравнивание: Соединение по промежуткам
Продолжительность промежутка: 40мс. (1,00 видеокадр)
Время предзагрузки промежутка: 504 ms

Общее
Полное имя: F:\Детское меню. 2011-2012 .XviD.SATRip\Detskoe.menju.(30.serija).2012.XviD.SATRip.avi
Формат: AVI
Формат/Информация: Audio Video Interleave
Размер файла: 301 Мбайт
Продолжительность: 27 м.
Общий поток: 1545 Кбит/сек
Программа кодирования: VirtualDubMod 1.5.10.2 (build 2540/release)
Библиотека кодирования: VirtualDubMod build 2540/release

Видео
Идентификатор: 0
Формат: MPEG-4 Visual
Профиль формата: Advanced Simple@L5
Параметр BVOP формата: 2
Параметр QPel формата: Нет
Параметр GMC формата: Без точки перехода
Параметр матрицы формата: Default (H.263)
Режим смешивания: Сжатый битовый поток
Идентификатор кодека: XVID
Идентификатор кодека/Подсказка: XviD
Продолжительность: 27 м.
Битрейт: 1407 Кбит/сек
Ширина: 720 пикс.
Высота: 400 пикс.
Соотношение сторон: 16:9
Частота кадров: 25,000 кадр/сек
Цветовое пространство: YUV
Подвыборка цветности: 4:2:0
Битовая глубина: 8 бит
Тип развёртки: Прогрессивная
Метод сжатия: С потерями
Бит/(Пиксели*Кадры): 0.195
Размер потока: 274 Мбайт (91%)
Библиотека кодирования: XviD 64

Аудио
Идентификатор: 1
Формат: MPEG Audio
Версия формата: Version 1
Профиль формата: Layer 3
Режим: Joint stereo
Расширение режима: MS Stereo
Идентификатор кодека: 55
Идентификатор кодека/Подсказка: MP3
Продолжительность: 27 м.
Вид битрейта: Постоянный
Битрейт: 128 Кбит/сек
Канал(ы): 2 канала(ов)
Частота: 48,0 КГц
Метод сжатия: С потерями
Размер потока: 24,9 Мбайт (8%)
Выравнивание: Соединение по промежуткам
Продолжительность промежутка: 40мс. (1,00 видеокадр)
Время предзагрузки промежутка: 504 ms

Общее
Полное имя: F:\Детское меню. 2011-2012 .XviD.SATRip\Detskoe.menju.(31.serija).2012.XviD.SATRip.avi
Формат: AVI
Формат/Информация: Audio Video Interleave
Размер файла: 311 Мбайт
Продолжительность: 28 м.
Общий поток: 1528 Кбит/сек
Программа кодирования: VirtualDubMod 1.5.10.2 (build 2540/release)
Библиотека кодирования: VirtualDubMod build 2540/release

Видео
Идентификатор: 0
Формат: MPEG-4 Visual
Профиль формата: Advanced Simple@L5
Параметр BVOP формата: 2
Параметр QPel формата: Нет
Параметр GMC формата: Без точки перехода
Параметр матрицы формата: Default (H.263)
Режим смешивания: Сжатый битовый поток
Идентификатор кодека: XVID
Идентификатор кодека/Подсказка: XviD
Продолжительность: 28 м.
Битрейт: 1390 Кбит/сек
Ширина: 720 пикс.
Высота: 400 пикс.
Соотношение сторон: 16:9
Частота кадров: 25,000 кадр/сек
Цветовое пространство: YUV
Подвыборка цветности: 4:2:0
Битовая глубина: 8 бит
Тип развёртки: Прогрессивная
Метод сжатия: С потерями
Бит/(Пиксели*Кадры): 0.193
Размер потока: 283 Мбайт (91%)
Библиотека кодирования: XviD 64

Аудио
Идентификатор: 1
Формат: MPEG Audio
Версия формата: Version 1
Профиль формата: Layer 3
Режим: Joint stereo
Расширение режима: MS Stereo
Идентификатор кодека: 55
Идентификатор кодека/Подсказка: MP3
Продолжительность: 28 м.
Вид битрейта: Постоянный
Битрейт: 128 Кбит/сек
Канал(ы): 2 канала(ов)
Частота: 48,0 КГц
Метод сжатия: С потерями
Размер потока: 26,0 Мбайт (8%)
Выравнивание: Соединение по промежуткам
Продолжительность промежутка: 40мс. (1,00 видеокадр)
Время предзагрузки промежутка: 504 ms

Общее
Полное имя: F:\Детское меню. 2011-2012 .XviD.SATRip\Detskoe.menju.(32.serija).2012.XviD.SATRip.avi
Формат: AVI
Формат/Информация: Audio Video Interleave
Размер файла: 301 Мбайт
Продолжительность: 27 м.
Общий поток: 1538 Кбит/сек
Программа кодирования: VirtualDubMod 1.5.10.2 (build 2540/release)
Библиотека кодирования: VirtualDubMod build 2540/release

Видео
Идентификатор: 0
Формат: MPEG-4 Visual
Профиль формата: Advanced Simple@L5
Параметр BVOP формата: 2
Параметр QPel формата: Нет
Параметр GMC формата: Без точки перехода
Параметр матрицы формата: Default (H.263)
Режим смешивания: Сжатый битовый поток
Идентификатор кодека: XVID
Идентификатор кодека/Подсказка: XviD
Продолжительность: 27 м.
Битрейт: 1400 Кбит/сек
Ширина: 720 пикс.
Высота: 400 пикс.
Соотношение сторон: 16:9
Частота кадров: 25,000 кадр/сек
Цветовое пространство: YUV
Подвыборка цветности: 4:2:0
Битовая глубина: 8 бит
Тип развёртки: Прогрессивная
Метод сжатия: С потерями
Бит/(Пиксели*Кадры): 0.195
Размер потока: 274 Мбайт (91%)
Библиотека кодирования: XviD 64

Аудио
Идентификатор: 1
Формат: MPEG Audio
Версия формата: Version 1
Профиль формата: Layer 3
Режим: Joint stereo
Расширение режима: MS Stereo
Идентификатор кодека: 55
Идентификатор кодека/Подсказка: MP3
Продолжительность: 27 м.
Вид битрейта: Постоянный
Битрейт: 128 Кбит/сек
Канал(ы): 2 канала(ов)
Частота: 48,0 КГц
Метод сжатия: С потерями
Размер потока: 25,0 Мбайт (8%)
Выравнивание: Соединение по промежуткам
Продолжительность промежутка: 40мс. (1,00 видеокадр)
Время предзагрузки промежутка: 504 ms

Общее
Полное имя: F:\Детское меню. 2011-2012 .XviD.SATRip\Detskoe.menju.(34.serija).2012.XviD.SATRip.avi
Формат: AVI
Формат/Информация: Audio Video Interleave
Размер файла: 300 Мбайт
Продолжительность: 27 м.
Общий поток: 1548 Кбит/сек
Программа кодирования: VirtualDubMod 1.5.10.2 (build 2540/release)
Библиотека кодирования: VirtualDubMod build 2540/release

Видео
Идентификатор: 0
Формат: MPEG-4 Visual
Профиль формата: Advanced Simple@L5
Параметр BVOP формата: 2
Параметр QPel формата: Нет
Параметр GMC формата: Без точки перехода
Параметр матрицы формата: Default (H.263)
Режим смешивания: Сжатый битовый поток
Идентификатор кодека: XVID
Идентификатор кодека/Подсказка: XviD
Продолжительность: 27 м.
Битрейт: 1410 Кбит/сек
Ширина: 720 пикс.
Высота: 400 пикс.
Соотношение сторон: 16:9
Частота кадров: 25,000 кадр/сек
Цветовое пространство: YUV
Подвыборка цветности: 4:2:0
Битовая глубина: 8 бит
Тип развёртки: Прогрессивная
Метод сжатия: С потерями
Бит/(Пиксели*Кадры): 0.196
Размер потока: 274 Мбайт (91%)
Библиотека кодирования: XviD 64

Аудио
Идентификатор: 1
Формат: MPEG Audio
Версия формата: Version 1
Профиль формата: Layer 3
Режим: Joint stereo
Идентификатор кодека: 55
Идентификатор кодека/Подсказка: MP3
Продолжительность: 27 м.
Вид битрейта: Постоянный
Битрейт: 128 Кбит/сек
Канал(ы): 2 канала(ов)
Частота: 48,0 КГц
Метод сжатия: С потерями
Размер потока: 24,8 Мбайт (8%)
Выравнивание: Соединение по промежуткам
Продолжительность промежутка: 40мс. (1,00 видеокадр)
Время предзагрузки промежутка: 504 ms

Общее
Полное имя: F:\Детское меню. 2011-2012 .XviD.SATRip\Detskoe.menju.(35.serija).2012.XviD.SATRip.avi
Формат: AVI
Формат/Информация: Audio Video Interleave
Размер файла: 300 Мбайт
Продолжительность: 27 м.
Общий поток: 1525 Кбит/сек
Программа кодирования: VirtualDubMod 1.5.10.2 (build 2540/release)
Библиотека кодирования: VirtualDubMod build 2540/release

Видео
Идентификатор: 0
Формат: MPEG-4 Visual
Профиль формата: Advanced Simple@L5
Параметр BVOP формата: 2
Параметр QPel формата: Нет
Параметр GMC формата: Без точки перехода
Параметр матрицы формата: Default (H.263)
Режим смешивания: Сжатый битовый поток
Идентификатор кодека: XVID
Идентификатор кодека/Подсказка: XviD
Продолжительность: 27 м.
Битрейт: 1387 Кбит/сек
Ширина: 720 пикс.
Высота: 400 пикс.
Соотношение сторон: 16:9
Частота кадров: 25,000 кадр/сек
Цветовое пространство: YUV
Подвыборка цветности: 4:2:0
Битовая глубина: 8 бит
Тип развёртки: Прогрессивная
Метод сжатия: С потерями
Бит/(Пиксели*Кадры): 0.193
Размер потока: 273 Мбайт (91%)
Библиотека кодирования: XviD 64

Аудио
Идентификатор: 1
Формат: MPEG Audio
Версия формата: Version 1
Профиль формата: Layer 3
Режим: Joint stereo
Расширение режима: MS Stereo
Идентификатор кодека: 55
Идентификатор кодека/Подсказка: MP3
Продолжительность: 27 м.
Вид битрейта: Постоянный
Битрейт: 128 Кбит/сек
Канал(ы): 2 канала(ов)
Частота: 48,0 КГц
Метод сжатия: С потерями
Задержка видео: 24 мс.
Размер потока: 25,2 Мбайт (8%)
Выравнивание: Соединение по промежуткам
Продолжительность промежутка: 40мс. (1,00 видеокадр)
Время предзагрузки промежутка: 504 ms

Общее
Полное имя: F:\Детское меню. 2011-2012 .XviD.SATRip\Detskoe.menju.(36.serija).2012.XviD.SATRip.avi
Формат: AVI
Формат/Информация: Audio Video Interleave
Размер файла: 300 Мбайт
Продолжительность: 25 м.
Общий поток: 1677 Кбит/сек
Программа кодирования: VirtualDubMod 1.5.10.2 (build 2540/release)
Библиотека кодирования: VirtualDubMod build 2540/release

Видео
Идентификатор: 0
Формат: MPEG-4 Visual
Профиль формата: Advanced Simple@L5
Параметр BVOP формата: 2
Параметр QPel формата: Нет
Параметр GMC формата: Без точки перехода
Параметр матрицы формата: Default (H.263)
Режим смешивания: Сжатый битовый поток
Идентификатор кодека: XVID
Идентификатор кодека/Подсказка: XviD
Продолжительность: 25 м.
Битрейт: 1540 Кбит/сек
Ширина: 720 пикс.
Высота: 400 пикс.
Соотношение сторон: 16:9
Частота кадров: 25,000 кадр/сек
Цветовое пространство: YUV
Подвыборка цветности: 4:2:0
Битовая глубина: 8 бит
Тип развёртки: Прогрессивная
Метод сжатия: С потерями
Бит/(Пиксели*Кадры): 0.214
Размер потока: 276 Мбайт (92%)
Библиотека кодирования: XviD 64

Аудио
Идентификатор: 1
Формат: MPEG Audio
Версия формата: Version 1
Профиль формата: Layer 3
Режим: Joint stereo
Расширение режима: MS Stereo
Идентификатор кодека: 55
Идентификатор кодека/Подсказка: MP3
Продолжительность: 25 м.
Вид битрейта: Постоянный
Битрейт: 128 Кбит/сек
Канал(ы): 2 канала(ов)
Частота: 48,0 КГц
Метод сжатия: С потерями
Размер потока: 22,9 Мбайт (8%)
Выравнивание: Соединение по промежуткам
Продолжительность промежутка: 40мс. (1,00 видеокадр)
Время предзагрузки промежутка: 504 ms

Общее
Полное имя: F:\Детское меню. 2011-2012 .XviD.SATRip\Detskoe.menju.(37.serija).2012.XviD.SATRip.avi
Формат: AVI
Формат/Информация: Audio Video Interleave
Размер файла: 300 Мбайт
Продолжительность: 26 м.
Общий поток: 1579 Кбит/сек
Программа кодирования: VirtualDubMod 1.5.10.2 (build 2540/release)
Библиотека кодирования: VirtualDubMod build 2540/release

Видео
Идентификатор: 0
Формат: MPEG-4 Visual
Профиль формата: Advanced Simple@L5
Параметр BVOP формата: 2
Параметр QPel формата: Нет
Параметр GMC формата: Без точки перехода
Параметр матрицы формата: Default (H.263)
Режим смешивания: Сжатый битовый поток
Идентификатор кодека: XVID
Идентификатор кодека/Подсказка: XviD
Продолжительность: 26 м.
Битрейт: 1442 Кбит/сек
Ширина: 720 пикс.
Высота: 400 пикс.
Соотношение сторон: 16:9
Частота кадров: 25,000 кадр/сек
Цветовое пространство: YUV
Подвыборка цветности: 4:2:0
Битовая глубина: 8 бит
Тип развёртки: Прогрессивная
Метод сжатия: С потерями
Бит/(Пиксели*Кадры): 0.200
Размер потока: 274 Мбайт (91%)
Библиотека кодирования: XviD 64

Аудио
Идентификатор: 1
Формат: MPEG Audio
Версия формата: Version 1
Профиль формата: Layer 3
Режим: Joint stereo
Расширение режима: MS Stereo
Идентификатор кодека: 55
Идентификатор кодека/Подсказка: MP3
Продолжительность: 26 м.
Вид битрейта: Постоянный
Битрейт: 128 Кбит/сек
Канал(ы): 2 канала(ов)
Частота: 48,0 КГц
Метод сжатия: С потерями
Размер потока: 24,3 Мбайт (8%)
Выравнивание: Соединение по промежуткам
Продолжительность промежутка: 40мс. (1,00 видеокадр)
Время предзагрузки промежутка: 504 ms

Общее
Полное имя: F:\Детское меню. 2011-2012 .XviD.SATRip\Detskoe.menju.(38.serija).2012.XviD.SATRip.avi
Формат: AVI
Формат/Информация: Audio Video Interleave
Размер файла: 301 Мбайт
Продолжительность: 26 м.
Общий поток: 1591 Кбит/сек
Программа кодирования: VirtualDubMod 1.5.10.2 (build 2540/release)
Библиотека кодирования: VirtualDubMod build 2540/release

Видео
Идентификатор: 0
Формат: MPEG-4 Visual
Профиль формата: Advanced Simple@L5
Параметр BVOP формата: 2
Параметр QPel формата: Нет
Параметр GMC формата: Без точки перехода
Параметр матрицы формата: Default (H.263)
Режим смешивания: Сжатый битовый поток
Идентификатор кодека: XVID
Идентификатор кодека/Подсказка: XviD
Продолжительность: 26 м.
Битрейт: 1454 Кбит/сек
Ширина: 720 пикс.
Высота: 400 пикс.
Соотношение сторон: 16:9
Частота кадров: 25,000 кадр/сек
Цветовое пространство: YUV
Подвыборка цветности: 4:2:0
Битовая глубина: 8 бит
Тип развёртки: Прогрессивная
Метод сжатия: С потерями
Бит/(Пиксели*Кадры): 0.202
Размер потока: 274 Мбайт (91%)
Библиотека кодирования: XviD 64

Аудио
Идентификатор: 1
Формат: MPEG Audio
Версия формата: Version 1
Профиль формата: Layer 3
Режим: Joint stereo
Расширение режима: MS Stereo
Идентификатор кодека: 55
Идентификатор кодека/Подсказка: MP3
Продолжительность: 26 м.
Вид битрейта: Постоянный
Битрейт: 128 Кбит/сек
Канал(ы): 2 канала(ов)
Частота: 48,0 КГц
Метод сжатия: С потерями
Размер потока: 24,2 Мбайт (8%)
Выравнивание: Соединение по промежуткам
Продолжительность промежутка: 40мс. (1,00 видеокадр)
Время предзагрузки промежутка: 504 ms

Общее
Полное имя: F:\Детское меню. 2011-2012 .XviD.SATRip\Detskoe.menju.(40.serija).2012.XviD.SATRip.avi
Формат: AVI
Формат/Информация: Audio Video Interleave
Размер файла: 301 Мбайт
Продолжительность: 25 м.
Общий поток: 1625 Кбит/сек
Программа кодирования: VirtualDubMod 1.5.10.2 (build 2540/release)
Библиотека кодирования: VirtualDubMod build 2540/release

Видео
Идентификатор: 0
Формат: MPEG-4 Visual
Профиль формата: Advanced Simple@L5
Параметр BVOP формата: 2
Параметр QPel формата: Нет
Параметр GMC формата: Без точки перехода
Параметр матрицы формата: Default (H.263)
Режим смешивания: Сжатый битовый поток
Идентификатор кодека: XVID
Идентификатор кодека/Подсказка: XviD
Продолжительность: 25 м.
Битрейт: 1487 Кбит/сек
Ширина: 720 пикс.
Высота: 400 пикс.
Соотношение сторон: 16:9
Частота кадров: 25,000 кадр/сек
Цветовое пространство: YUV
Подвыборка цветности: 4:2:0
Битовая глубина: 8 бит
Тип развёртки: Прогрессивная
Метод сжатия: С потерями
Бит/(Пиксели*Кадры): 0.207
Размер потока: 275 Мбайт (92%)
Библиотека кодирования: XviD 64

Аудио
Идентификатор: 1
Формат: MPEG Audio
Версия формата: Version 1
Профиль формата: Layer 3
Режим: Joint stereo
Расширение режима: MS Stereo
Идентификатор кодека: 55
Идентификатор кодека/Подсказка: MP3
Продолжительность: 25 м.
Вид битрейта: Постоянный
Битрейт: 128 Кбит/сек
Канал(ы): 2 канала(ов)
Частота: 48,0 КГц
Метод сжатия: С потерями
Размер потока: 23,7 Мбайт (8%)
Выравнивание: Соединение по промежуткам
Продолжительность промежутка: 40мс. (1,00 видеокадр)
Время предзагрузки промежутка: 504 ms

Общее
Полное имя: F:\Детское меню. 2011-2012 .XviD.SATRip\Detskoe.menju.(41.serija).2012.XviD.SATRip.avi
Формат: AVI
Формат/Информация: Audio Video Interleave
Размер файла: 301 Мбайт
Продолжительность: 26 м.
Общий поток: 1613 Кбит/сек
Программа кодирования: VirtualDubMod 1.5.10.2 (build 2540/release)
Библиотека кодирования: VirtualDubMod build 2540/release

Видео
Идентификатор: 0
Формат: MPEG-4 Visual
Профиль формата: Advanced Simple@L5
Параметр BVOP формата: 2
Параметр QPel формата: Нет
Параметр GMC формата: Без точки перехода
Параметр матрицы формата: Default (H.263)
Режим смешивания: Сжатый битовый поток
Идентификатор кодека: XVID
Идентификатор кодека/Подсказка: XviD
Продолжительность: 26 м.
Битрейт: 1475 Кбит/сек
Ширина: 720 пикс.
Высота: 400 пикс.
Соотношение сторон: 16:9
Частота кадров: 25,000 кадр/сек
Цветовое пространство: YUV
Подвыборка цветности: 4:2:0
Битовая глубина: 8 бит
Тип развёртки: Прогрессивная
Метод сжатия: С потерями
Бит/(Пиксели*Кадры): 0.205
Размер потока: 275 Мбайт (91%)
Библиотека кодирования: XviD 64

Аудио
Идентификатор: 1
Формат: MPEG Audio
Версия формата: Version 1
Профиль формата: Layer 3
Режим: Joint stereo
Расширение режима: MS Stereo
Идентификатор кодека: 55
Идентификатор кодека/Подсказка: MP3
Продолжительность: 26 м.
Вид битрейта: Постоянный
Битрейт: 128 Кбит/сек
Канал(ы): 2 канала(ов)
Частота: 48,0 КГц
Метод сжатия: С потерями
Размер потока: 23,9 Мбайт (8%)
Выравнивание: Соединение по промежуткам
Продолжительность промежутка: 40мс. (1,00 видеокадр)
Время предзагрузки промежутка: 504 ms

Общее
Полное имя: F:\Детское меню. 2011-2012 .XviD.SATRip\Detskoe.menju.(42.serija).2012.XviD.SATRip.avi
Формат: AVI
Формат/Информация: Audio Video Interleave
Размер файла: 305 Мбайт
Продолжительность: 27 м.
Общий поток: 1544 Кбит/сек
Программа кодирования: VirtualDubMod 1.5.10.2 (build 2540/release)
Библиотека кодирования: VirtualDubMod build 2540/release

Видео
Идентификатор: 0
Формат: MPEG-4 Visual
Профиль формата: Advanced Simple@L5
Параметр BVOP формата: 2
Параметр QPel формата: Нет
Параметр GMC формата: Без точки перехода
Параметр матрицы формата: Default (H.263)
Режим смешивания: Сжатый битовый поток
Идентификатор кодека: XVID
Идентификатор кодека/Подсказка: XviD
Продолжительность: 27 м.
Битрейт: 1406 Кбит/сек
Ширина: 720 пикс.
Высота: 400 пикс.
Соотношение сторон: 16:9
Частота кадров: 25,000 кадр/сек
Цветовое пространство: YUV
Подвыборка цветности: 4:2:0
Битовая глубина: 8 бит
Тип развёртки: Прогрессивная
Метод сжатия: С потерями
Бит/(Пиксели*Кадры): 0.195
Размер потока: 277 Мбайт (91%)
Библиотека кодирования: XviD 64

Аудио
Идентификатор: 1
Формат: MPEG Audio
Версия формата: Version 1
Профиль формата: Layer 3
Режим: Joint stereo
Расширение режима: MS Stereo
Идентификатор кодека: 55
Идентификатор кодека/Подсказка: MP3
Продолжительность: 27 м.
Вид битрейта: Постоянный
Битрейт: 128 Кбит/сек
Канал(ы): 2 канала(ов)
Частота: 48,0 КГц
Метод сжатия: С потерями
Размер потока: 25,3 Мбайт (8%)
Выравнивание: Соединение по промежуткам
Продолжительность промежутка: 40мс. (1,00 видеокадр)
Время предзагрузки промежутка: 504 ms

Общее
Полное имя: F:\Детское меню. 2011-2012 .XviD.SATRip\Detskoe.menju.(43.serija).2012.XviD.SATRip.avi
Формат: AVI
Формат/Информация: Audio Video Interleave
Размер файла: 300 Мбайт
Продолжительность: 24 м.
Общий поток: 1688 Кбит/сек
Программа кодирования: VirtualDubMod 1.5.10.2 (build 2540/release)
Библиотека кодирования: VirtualDubMod build 2540/release

Видео
Идентификатор: 0
Формат: MPEG-4 Visual
Профиль формата: Advanced Simple@L5
Параметр BVOP формата: 2
Параметр QPel формата: Нет
Параметр GMC формата: Без точки перехода
Параметр матрицы формата: Default (H.263)
Режим смешивания: Сжатый битовый поток
Идентификатор кодека: XVID
Идентификатор кодека/Подсказка: XviD
Продолжительность: 24 м.
Битрейт: 1551 Кбит/сек
Ширина: 720 пикс.
Высота: 400 пикс.
Соотношение сторон: 16:9
Частота кадров: 25,000 кадр/сек
Цветовое пространство: YUV
Подвыборка цветности: 4:2:0
Битовая глубина: 8 бит
Тип развёртки: Прогрессивная
Метод сжатия: С потерями
Бит/(Пиксели*Кадры): 0.215
Размер потока: 276 Мбайт (92%)
Библиотека кодирования: XviD 64

Аудио
Идентификатор: 1
Формат: MPEG Audio
Версия формата: Version 1
Профиль формата: Layer 3
Режим: Joint stereo
Расширение режима: MS Stereo
Идентификатор кодека: 55
Идентификатор кодека/Подсказка: MP3
Продолжительность: 24 м.
Вид битрейта: Постоянный
Битрейт: 128 Кбит/сек
Канал(ы): 2 канала(ов)
Частота: 48,0 КГц
Метод сжатия: С потерями
Размер потока: 22,8 Мбайт (8%)
Выравнивание: Соединение по промежуткам
Продолжительность промежутка: 40мс. (1,00 видеокадр)
Время предзагрузки промежутка: 504 ms


Скриншоты:



Постеры

Соцсети

 

Вернуться в Развитие и воспитание детей (0-5 лет)



Кто сейчас на конференции

Сейчас эту тему просматривают: CCBot и гости: 0