Видео


Сообщение

Видео Заикание у ребенка: Что делать? (2009) DVDRip

Сообщение Нюша » 16 дек 2012, 18:27

Заикание у ребенка: Что делать? (2009) DVDRip

Русское название: Заикание у ребенка: Что делать?
Год выпуска: 2009
Производство: Россия, Пеликан Медиа
Жанр: Детский, Для родителей, Обучающий
Режиссер: Денис Попов-Толмачев

Описание фильма:
Заикание - серьезное нарушение речи. К нему нельзя относиться легкомысленно, надеясь, что со временем, без особых усилий, все пройдет. Лечение при заикании нужно начинать немедленно, как только оно возникло - в начальной стадии. Острое заболевание лечить всегда легче, чем хроническое. И лечение обязательно должно быть комплексным. Данный фильм послужит хорошим подспорьем для родителей по профилактике и лечению заикания у детей в домашних условиях. Профессиональные логопеды центра "Логопед плюс" с более чем 30-ти летним стажем работы в данной сфере делятся опытом логопедических, логоритмических, музыкальных, физкультурных занятий, направленных на развитие общей, тонкой, артикуляционной моторики, фонационного дыхания и интонационной стороны речи, а также элементам мышечного расслабления.

Продолжительность: 01:27:50
Качество видео: DVDRip
Видеокодек: XviD
Битрейт видео: ~2026 Кбит/с
Размер кадра: 704x528
Аудиокодек: AC3, 2ch
Битрейт аудио: 192 Кбит/с

General
Complete name: F:\Zaikanie.u.rebenka.2009.XviD.DVDRip.avi
Format: AVI
Format/Info: Audio Video Interleave
File size: 1.37 GiB
Duration: 1h 27mn
Overall bit rate: 2 227 Kbps
Writing application: VirtualDubMod 1.5.10.2 (build 2540/release)
Writing library: VirtualDubMod build 2540/release

Video
ID: 0
Format: MPEG-4 Visual
Format profile: Advanced Simple@L5
Format settings, BVOP: 1
Format settings, QPel: No
Format settings, GMC: No warppoints
Format settings, Matrix: Default (H.263)
Codec ID: XVID
Codec ID/Hint: XviD
Duration: 1h 27mn
Bit rate: 2 026 Kbps
Width: 704 pixels
Height: 528 pixels
Display aspect ratio: 4:3
Frame rate: 25.000 fps
Color space: YUV
Chroma subsampling: 4:2:0
Bit depth: 8 bits
Scan type: Progressive
Compression mode: Lossy
Bits/(Pixel*Frame): 0.218
Stream size: 1.24 GiB (91%)
Writing library: XviD 1.2.1 (UTC 2008-12-04)

Audio
ID: 1
Format: MPEG Audio
Format version: Version 1
Format profile: Layer 3
Codec ID: 55
Codec ID/Hint: MP3
Duration: 1h 27mn
Bit rate mode: Variable
Bit rate: 192 Kbps
Channel(s): 2 channels
Sampling rate: 48.0 KHz
Compression mode: Lossy
Stream size: 118 MiB (8%)
Alignment: Aligned on interleaves
Interleave, duration: 24 ms (0.60 video frame)
Interleave, preload duration: 520 ms
Writing library: LAME3.98r
Encoding settings: -m s -V 4 -q 2 -lowpass 18.6 --abr 192
Скриншоты:


Время раздачи: 24/7 - до 5 скачавших, потом по ситуации

Постеры

Соцсети

 

Статистика

Автор: Нюша
Добавлен: 16 дек 2012, 18:27
Размер: 1.37 ГБ
Размер: 1 467 148 288 байт
Сидеров: 0
Личеров: 11
Скачали: 1
Здоровье: ???%
Скорость скачивания: 0 байт/сек
Скорость раздачи: 0 байт/сек
Последний сидер: 1 год 5 месяцев 16 дней 18 часов 14 минут 36 секунд назад
Последний личер: 5 дней 9 часов 58 минут 48 секунд назад
Приватный: Нет (DHT включён)
Скачать торрент
Скачать торрент
[ Размер 14.39 КБ / Просмотров 5 ]

Поделиться


  • Похожие торренты
    Ответы
    Просмотры
    Последнее сообщение

Вернуться в Развитие и воспитание детей (0-5 лет)