Видео


Сообщение

Видео Развитие творческих способностей у детей от 3 лет (2007) DVDRip

Сообщение Нюша » 16 дек 2012, 19:18

Развитие творческих способностей у детей от 3 лет (2007) DVDRip

Русское название: Развитие творческих способностей у детей от 3 лет
Год выпуска: 2007
Страна: Россия
Жанр: Обучающий

Описание фильма:
Дети обладают огромными способностями восприятия и отображения мира. Задача взрослого вовремя подхватить и развить их. Увлекательная программа развивает воображение ребенка, чувство цвета и формы, учит рисовать портреты, пейзажи, создавать причудливые картины, изготавливать витражи и многое другое. Фильм поможет приобщить к творчеству всех членов семьи. Программу ведёт Светлана Александровна Мочалова - художник, преподаватель изобразительного искусства, аспирант Московского Педагогического Государственного Университета.

Продолжительность: 01:02:03
Качество видео: DVDRip

Видеокодек: Xvid
Битрейт видео: ~1214 kb/s
Размер кадра: 640х368
Аудиокодек: MP3 2 ch
Битрейт аудио: 128 kb/s
Формат: AVI
Формат/Информация: Audio Video Interleave
Размер файла: 600 Мбайт
Продолжительность: 1 ч. 2 м.
Общий поток: 1351 Кбит/сек
Программа кодирования: VirtualDubMod 1.5.10.2 (build 2540/release)
Библиотека кодирования: VirtualDubMod build 2540/release

Видео
Идентификатор: 0
Формат: MPEG-4 Visual
Профиль формата: Advanced Simple@L5
Параметр BVOP формата: 2
Параметр QPel формата: Нет
Параметр GMC формата: Без точки перехода
Параметр матрицы формата: Default (MPEG)
Режим смешивания: Сжатый битовый поток
Идентификатор кодека: XVID
Идентификатор кодека/Подсказка: XviD
Продолжительность: 1 ч. 2 м.
Битрейт: 1214 Кбит/сек
Ширина: 640 пикселей
Высота: 368 пикселей
Соотношение сторон: 1,739
Частота кадров: 25,000 кадров/сек
Цветовое пространство: YUV
Субдискретизация насыщенности: 4:2:0
Битовая глубина: 8 бит
Тип развёртки: Прогрессивная
Метод сжатия: С потерями
Бит/(Пиксели*Кадры): 0.206
Размер потока: 539 Мбайт (90%)
Библиотека кодирования: XviD 1.2.1 (UTC 2008-12-04)

Аудио
Идентификатор: 1
Формат: MPEG Audio
Версия формата: Version 1
Профиль формата: Layer 3
Режим: Joint stereo
Идентификатор кодека: 55
Идентификатор кодека/Подсказка: MP3
Продолжительность: 1 ч. 2 м.
Вид битрейта: Постоянный
Битрейт: 128 Кбит/сек
Каналы: 2 канала
Частота: 48,0 КГц
Метод сжатия: С потерями
Размер потока: 56,8 Мбайт (9%)
Выравнивание: Соединение по промежуткам
Продолжительность промежутка: 40мс. (1,00 видеокадр)
Время предзагрузки промежутка: 504мс.
Библиотека кодирования: LAME3.90.3
Скриншоты:


Смотрите так же другие мои раздачи

Спасибо за спасибо!


Время раздачи: с 8:00 до 24:00 до первых 10-ти скачавших, далее по возможности

Постеры

Соцсети

 

Вернуться в Развитие и воспитание детей (0-5 лет)



Кто сейчас на конференции

Сейчас эту тему просматривают: CCBot и гости: 0