Видео


Сообщение

Видео Angelo Carbone - Hover [2011, Фокусы, DVDRip ENG] (Видеоурок)

Сообщение stegrian » 26 янв 2013, 12:17

Angelo Carbone - Hover
Страна: США
Тематика: Фокусы
Тип раздаваемого материала: Видеоурок
Продолжительность: 00:14:50
Год выпуска: 2011
Язык: Английский
Перевод: Не требуется
Описание: Borrow a deck of cards which you remove from the case. The case is placed on the table and the deck is placed on top of the case.
Now without touching the deck at all, you slowly remove the case from under the deck until it no longer fully supports the deck. The cards are just floating in mid air. The top card is removed to wave under the deck, to prove there are no connections between the deck and the table.
Finally the case is pushed back under the deck, again without touching the cards. All is left for immediate examination.
Use any deck of cards. DVD & Special gimmick supplied.
http://www.youtube.com/watch?v=Y930MQf2G8w
Видео посмотрите
Качество:DVDRip
Формат: AVI
Видео кодек: DivX
Аудио кодек: MP3
Видео: Video: DivX 6 720x480 29.97fps [Stream 00], Bit rate : 2 902 Kbps
Аудио: Audio: MPEG Audio Layer 3 48000Hz stereo 128Kbps [Stream 01], Bit rate : 128 Kbps
mediaInfo
General
Complete name : C:\Users\Админ\Desktop\magic\Angelo Carbone - Hover.avi
Format : AVI
Format/Info : Audio Video Interleave
File size : 323 MiB
Duration : 14mn 50s
Overall bit rate : 3 042 Kbps
Movie name : Angelo Carbone - Hover.avi
Writing application : Lavf52.34.0
Video
ID : 0
Format : MPEG-4 Visual
Format profile : Simple@L1
Format settings, BVOP : No
Format settings, QPel : No
Format settings, GMC : No warppoints
Format settings, Matrix : Default (H.263)
Codec ID : DIVX
Codec ID/Info : Project Mayo
Codec ID/Hint : DivX 4
Duration : 14mn 49s
Bit rate : 2 902 Kbps
Width : 720 pixels
Height : 480 pixels
Display aspect ratio : 16:9
Frame rate : 29.970 fps
Standard : NTSC
Color space : YUV
Chroma subsampling : 4:2:0
Bit depth : 8 bits
Scan type : Progressive
Compression mode : Lossy
Bits/(Pixel*Frame) : 0.280
Stream size : 308 MiB (95%)
Writing library : Lavc52.31.2
Audio
ID : 1
Format : MPEG Audio
Format version : Version 1
Format profile : Layer 3
Mode : Joint stereo
Mode extension : MS Stereo
Codec ID : 55
Codec ID/Hint : MP3
Duration : 14mn 50s
Bit rate mode : Constant
Bit rate : 128 Kbps
Channel(s) : 2 channels
Sampling rate : 48.0 KHz
Compression mode : Lossy
Stream size : 13.6 MiB (4%)
Alignment : Aligned on interleaves
Interleave, duration : 24 ms (0.72 video frame)
Writing library : LAME3.99 (alpha)
Скриншоты


Постеры

Соцсети

 

Статистика

Автор: stegrian
Добавлен: 26 янв 2013, 12:17
Размер: 322.88 МБ
Размер: 338 569 310 байт
Сидеров: 34
Личеров: 9
Скачали: 3
Здоровье: 100%
Раздающих: 100%
Скорость скачивания: 0 байт/сек
Скорость раздачи: 0 байт/сек
Последний сидер: 1 месяц 23 дня 4 часа 47 минут 23 секунды назад
Последний личер: 1 месяц 23 дня 4 часа 47 минут 23 секунды назад
Приватный: Нет (DHT включён)
Скачать торрент
Скачать торрент
[ Размер 13.09 КБ / Просмотров 11 ]

Поделиться


Вернуться в Фокусы и трюки