Видео


Сообщение

Видео Екатерина Доброхотова - AGAPE / Ekaterina Dobrokhotova - AGAPE [2011, Фокусы, CamRip, ENG] (Видеоурок)

Сообщение stegrian » 26 янв 2013, 12:18

Екатерина Доброхотова - AGAPE / Ekaterina Dobrokhotova - AGAPE
Страна: США
Тематика: Фокусы
Тип раздаваемого материала: Видеоурок
Продолжительность: 14:39
Год выпуска: 2011
Язык: Английский
Перевод: Не требуется
Описание: http://www.papercranemagic.com/agape.htm
Контроль, колорчендж, свич в одном флаконе
Качество: CamRip
Формат: WMV
Видео кодек: WMVx
Аудио кодек: WMA
Видео: Video: Windows Media Video 9 560x316 23.98fps 652Kbps [Raw Video 1], Bit rate : 653 Kbps
Аудио: Audio: Windows Media Audio 44100Hz stereo 64Kbps [Raw Audio 0], Bit rate : 64.0 Kbps
MediaInfo
General
Complete name : C:\Users\Админ\Desktop\magic\Ekaterina Dobrokhotova - AGAPE.wmv
Format : Windows Media
File size : 69.6 MiB
Duration : 14mn 39s
Overall bit rate mode : Constant
Overall bit rate : 664 Kbps
Maximum Overall bit rate : 726 Kbps
Encoded date : UTC 2011-07-06 15:17:26.467
SfOriginalFPS : 239760
_SfMarkerDuration_0 : 0
Video
ID : 2
Format : VC-1
Format profile : MP@ML
Codec ID : WMV3
Codec ID/Info : Windows Media Video 9
Codec ID/Hint : WMV3
Description of the codec : Windows Media Video 9
Duration : 14mn 39s
Bit rate mode : Constant
Bit rate : 653 Kbps
Width : 560 pixels
Height : 316 pixels
Display aspect ratio : 16:9
Frame rate : 23.976 fps
Bit depth : 8 bits
Scan type : Progressive
Compression mode : Lossy
Bits/(Pixel*Frame) : 0.154
Stream size : 68.4 MiB (98%)
Audio
ID : 1
Format : WMA
Format version : Version 2
Codec ID : 161
Codec ID/Info : Windows Media Audio
Description of the codec : Windows Media Audio 9.2 - 64 kbps, 44 kHz, stereo (A/V) 1-pass CBR
Duration : 14mn 39s
Bit rate mode : Constant
Bit rate : 64.0 Kbps
Channel(s) : 2 channels
Sampling rate : 44.1 KHz
Bit depth : 16 bits
Stream size : 6.71 MiB (10%)
Скриншоты


Постеры

Соцсети

 

Статистика

Автор: stegrian
Добавлен: 26 янв 2013, 12:18
Размер: 69.63 МБ
Размер: 73 010 701 байт
Сидеров: 15
Личеров: 8
Скачали: 0
Здоровье: 100%
Раздающих: 100%
Скорость скачивания: 0 байт/сек
Скорость раздачи: 0 байт/сек
Последний сидер: 1 месяц 18 дней 20 часов 39 минут 37 секунд назад
Последний личер: 1 месяц 18 дней 20 часов 39 минут 37 секунд назад
Приватный: Нет (DHT включён)
Скачать торрент
Скачать торрент
[ Размер 11.38 КБ / Просмотров 11 ]

Поделиться


Вернуться в Фокусы и трюки