Видео


Сообщение

Видео Michael Kent - repAIR [2011, Фокусы, CamRip, ENG] (Видеоурок)

Сообщение stegrian » 26 янв 2013, 12:18

Michael Kent - repAIR
Страна: США
Тематика: Фокусы
Тип раздаваемого материала: Видеоурок
Продолжительность: 24:31
Год выпуска: 2011
Язык: Английский
Перевод: Не требуется
Описание: http://www.theory11.com/wire/michael-kent/repair/
Imagine it: You walk up to a group of people. After asking for one of the girls' numbers and being rejected, you pull out a balloon from your pocket and begin to inflate it. You remove a pencil from your pocket and pop the balloon, scaring the crap out of the girl (whom you are probably too good for anyway) and she begins to cry. Let's face it: there's nothing worse than a crying girl. You immediately start to massage the broken balloon pieces until they fuse together, allowing you to blow the balloon up once again. She gives you her number, but you don't call because she's been with all your friends. You instead make a fart noise with the balloon and put it back into your pocket - she doesn't deserve it.
repAIR happens right in front of their faces and you're able to show both hands completely empty before and after the effect. There's no need to load, ditch or swallow anything. It's super practical, extremely baffling, and looks like real magic.
Лопаете надутый воздушный шарик, крутите его в руках и бац - он снова целый.
Качество: CamRip
Формат: MP4
Видео: Video: MPEG4 Video (H264) 640x360 24.00fps 1262Kbps [Video0], Bit rate : 1 263 Kbps
Аудио: Audio: 0xa106 44100Hz stereo 526Kbps [Audio0], Bit rate : 66.2 Kbps
MediaInfo
General
Complete name : C:\Users\Админ\Desktop\magic\Michael Kent - repAIR.mp4
Format : MPEG-4
Format profile : Base Media
Codec ID : isom
File size : 233 MiB
Duration : 24mn 31s
Overall bit rate mode : Variable
Overall bit rate : 1 331 Kbps
Encoded date : UTC 2011-09-02 20:03:14
Tagged date : UTC 2011-09-02 20:03:14
Video
ID : 1
Format : AVC
Format/Info : Advanced Video Codec
Format profile : Baseline@L3.0
Format settings, CABAC : No
Format settings, ReFrames : 3 frames
Codec ID : avc1
Codec ID/Info : Advanced Video Coding
Duration : 24mn 31s
Bit rate : 1 263 Kbps
Maximum bit rate : 4 092 Kbps
Width : 640 pixels
Height : 360 pixels
Display aspect ratio : 16:9
Frame rate mode : Constant
Frame rate : 24.000 fps
Color space : YUV
Chroma subsampling : 4:2:0
Bit depth : 8 bits
Scan type : Progressive
Bits/(Pixel*Frame) : 0.228
Stream size : 222 MiB (95%)
Writing library : x264 core 115 r2013 6fce39a
Encoding settings : cabac=0 / ref=3 / deblock=1:0:0 / analyse=0x1:0x111 / me=umh / subme=8 / psy=1 / psy_rd=1.00:0.00 / mixed_ref=1 / me_range=16 / chroma_me=1 / trellis=1 / 8x8dct=0 / cqm=0 / deadzone=21,11 / fast_pskip=1 / chroma_qp_offset=-2 / threads=24 / sliced_threads=0 / nr=0 / decimate=1 / interlaced=0 / bluray_compat=0 / constrained_intra=0 / bframes=0 / weightp=0 / keyint=250 / keyint_min=24 / scenecut=40 / intra_refresh=0 / rc_lookahead=50 / rc=crf / mbtree=1 / crf=16.0 / qcomp=0.60 / qpmin=0 / qpmax=69 / qpstep=4 / ip_ratio=1.40 / aq=1:1.00
Encoded date : UTC 2011-09-02 20:03:14
Tagged date : UTC 2011-09-02 20:03:15
Audio
ID : 2
Format : AAC
Format/Info : Advanced Audio Codec
Format profile : LC
Codec ID : 40
Duration : 24mn 31s
Bit rate mode : Variable
Bit rate : 66.2 Kbps
Maximum bit rate : 117 Kbps
Channel(s) : 2 channels
Channel positions : Front: L R
Sampling rate : 44.1 KHz
Compression mode : Lossy
Stream size : 11.5 MiB (5%)
Encoded date : UTC 2011-09-02 20:03:15
Tagged date : UTC 2011-09-02 20:03:15
Скриншоты


Постеры

Соцсети

 

Статистика

Автор: stegrian
Добавлен: 26 янв 2013, 12:18
Размер: 233.46 МБ
Размер: 244 799 152 байт
Сидеров: 10
Личеров: 4
Скачали: 1
Здоровье: 100%
Раздающих: 100%
Скорость скачивания: 0 байт/сек
Скорость раздачи: 0 байт/сек
Последний сидер: 1 месяц 22 дня 15 часов 49 минут 26 секунд назад
Последний личер: 1 месяц 22 дня 15 часов 49 минут 26 секунд назад
Приватный: Нет (DHT включён)
Скачать торрент
Скачать торрент
[ Размер 18.72 КБ / Просмотров 6 ]

Поделиться


Вернуться в Фокусы и трюки