Видео


Сообщение

Видео Frank Zheng - Jump [2011, Фокусы, DVDRip, ENG] (Видеоурок)

Сообщение stegrian » 26 янв 2013, 12:18

Frank Zheng - Jump
Страна: Китай / США
Тематика: Фокусы
Тип раздаваемого материала: Видеоурок
Продолжительность: 2 HOURS
Год выпуска: 2011
Язык: Английский
Перевод: Не требуется
Описание: http://www.rsvpmagic.com/product_jump.html
Всего на видео должно быть десять фокусов, из которых основной - Baloon Burst (он представлен на видео). Суть его заключается в том, что зритель выбирает надувной шарик, соответственно надувает его и держит. Затем вы делаете пассы руками около шарика, не дотрагиваясь до него, и шар взрывается.
Офк руки перед этим можно показать, и там естественно ничего не будет.
Доп. информация: Рип ужасный. Видеофайл у меня распознается продолжительностью более 5 часов. Со звуком беда, с картинкой думаю тоже. Не было сил посмотреть. При взятии скринов-thumbnails через mpc, последний зависает на отметке 01:55:31.
Качество: DVDRip
Видео кодек: WMVx
Аудио кодек: WMA
Видео: Video: Windows Media Video 9 320x240 25.00fps 786Kbps [Raw Video 1]
Аудио: Audio: Windows Media Audio 44100Hz stereo 64Kbps [Raw Audio 0]
MediaInfo
General
Complete name : C:\Users\Админ\Desktop\magic\Frank Zheng - Jump.wmv
Format : Windows Media
File size : 843 MiB
Duration : 5h 27mn
Overall bit rate mode : Constant
Overall bit rate : 360 Kbps
Maximum Overall bit rate : 861 Kbps
Encoded date : UTC 2011-08-24 11:58:39.451
Video
ID : 2
Format : VC-1
Format profile : MP@LL
Codec ID : WMV3
Codec ID/Info : Windows Media Video 9
Codec ID/Hint : WMV3
Description of the codec : Windows Media Video 9
Duration : 5h 27mn
Bit rate mode : Constant
Bit rate : 786 Kbps
Width : 320 pixels
Height : 240 pixels
Display aspect ratio : 4:3
Frame rate : 10.272 fps
Nominal frame rate : 25.000 fps
Bit depth : 8 bits
Scan type : Progressive
Compression mode : Lossy
Bits/(Pixel*Frame) : 0.997
Stream size : 1.80 GiB
Language : English (US)
Audio
ID : 1
Format : WMA
Format version : Version 2
Codec ID : 161
Codec ID/Info : Windows Media Audio
Description of the codec : Windows Media Audio 9.2 - 64 kbps, 44 kHz, stereo (A/V) 1-pass CBR
Duration : 5h 27mn
Bit rate mode : Constant
Bit rate : 64.0 Kbps
Channel(s) : 2 channels
Sampling rate : 44.1 KHz
Bit depth : 16 bits
Stream size : 150 MiB (18%)
Language : English (US)
Скриншоты


Постеры

Соцсети

 

Статистика

Автор: stegrian
Добавлен: 26 янв 2013, 12:18
Размер: 843.43 МБ
Размер: 884 403 229 байт
Сидеров: 53
Личеров: 10
Скачали: 1
Здоровье: 100%
Раздающих: 100%
Скорость скачивания: 0 байт/сек
Скорость раздачи: 0 байт/сек
Последний сидер: 1 месяц 19 дней 9 часов 1 минуту 28 секунд назад
Последний личер: 1 месяц 19 дней 9 часов 1 минуту 28 секунд назад
Приватный: Нет (DHT включён)
Скачать торрент
Скачать торрент
[ Размер 16.96 КБ / Просмотров 11 ]

Поделиться


Вернуться в Фокусы и трюки