Видео


Сообщение

Видео Alex Pandrea - The Brick Pass [2011, Фокусы, CamRip, ENG] (Видеоурок)

Сообщение stegrian » 26 янв 2013, 12:18

Alex Pandrea - The Brick Pass
Страна: США
Тематика: Фокусы
Тип раздаваемого материала: Видеоурок
Продолжительность: 31:15
Год выпуска: 2011
Язык: Английский
Перевод: Не требуется
Описание: http://www.thebluecrown.com/store/tricks/the-brick-...lex-pandrea.html
The Brick Pass is Alex Pandrea’s refined interpretation of the classic pass, one of the most highly regarded utility moves in the world of close-up magic. In this instant video download, Alex spends over 30 minutes teaching the subtleties and nuances that will make your pass silent, invisible, and flawless. Filmed in high-definition, you’ll learn every detail of technique, finger placement, and hand motion to bring your pass to the next level.
Классический пасс, которому Алекс придал несколько штрихов от себя. Хорошо показывает, хорошо объясняет.
Качество: CamRip
Формат: MOV
Видео кодек: H.264
Аудио кодек: AAC
Видео: H264 - MPEG-4 AVC (part 10) (avc1), 640x360, 29.97 fps, Bit rate: 1 759 Kbps
Аудио: MPEG AAC Audio (mp4a), 44100 Гц, Каналы: стерео, Bit rate: 117 Kbps
MediaInfo
General
Complete name : C:\Users\Админ\Desktop\magic\Alex Pandrea\Alex Pandrea - The Brick Pass.mov
Format : MPEG-4
Format profile : QuickTime
Codec ID : qt
File size : 422 MiB
Duration : 31mn 15s
Overall bit rate : 1 888 Kbps
Encoded date : UTC 2011-03-04 00:16:52
Tagged date : UTC 2011-03-04 00:53:39
Writing application : CoreMediaAuthoring 677, CoreMedia 484.20, i386
Writing library : Apple QuickTime
Video
ID : 2
Format : AVC
Format/Info : Advanced Video Codec
Format profile : Main@L3.0
Format settings, CABAC : No
Format settings, ReFrames : 2 frames
Codec ID : avc1
Codec ID/Info : Advanced Video Coding
Duration : 31mn 15s
Bit rate : 1 759 Kbps
Width : 640 pixels
Height : 360 pixels
Display aspect ratio : 16:9
Frame rate mode : Constant
Frame rate : 29.970 fps
Color space : YUV
Chroma subsampling : 4:2:0
Bit depth : 8 bits
Scan type : Progressive
Bits/(Pixel*Frame) : 0.255
Stream size : 393 MiB (93%)
Title : Core Media Video
Encoded date : UTC 2011-03-04 00:16:52
Tagged date : UTC 2011-03-04 00:53:39
Color primaries : BT.601-6 525, BT.1358 525, BT.1700 NTSC, SMPTE 170M
Transfer characteristics : BT.709-5, BT.1361
Matrix coefficients : BT.601-6 525, BT.1358 525, BT.1700 NTSC, SMPTE 170M
Audio
ID : 1
Format : AAC
Format/Info : Advanced Audio Codec
Format profile : LC
Codec ID : 40
Duration : 31mn 15s
Bit rate mode : Constant
Bit rate : 117 Kbps
Nominal bit rate : 128 Kbps
Channel(s) : 2 channels
Channel positions : Front: L R
Sampling rate : 44.1 KHz
Compression mode : Lossy
Stream size : 26.2 MiB (6%)
Title : Core Media Audio
Language : English
Encoded date : UTC 2011-03-04 00:16:52
Tagged date : UTC 2011-03-04 00:53:39
Material_Duration : 1875197
Material_StreamSize : 27425921
Скриншоты


Постеры

Соцсети

 

Статистика

Автор: stegrian
Добавлен: 26 янв 2013, 12:18
Размер: 422.11 МБ
Размер: 442 611 102 байт
Сидеров: 17
Личеров: 10
Скачали: 2
Здоровье: 100%
Раздающих: 100%
Скорость скачивания: 0 байт/сек
Скорость раздачи: 0 байт/сек
Последний сидер: 1 месяц 23 дня 4 часа 33 минуты 4 секунды назад
Последний личер: 1 месяц 23 дня 4 часа 33 минуты 4 секунды назад
Приватный: Нет (DHT включён)
Скачать торрент
Скачать торрент
[ Размер 16.99 КБ / Просмотров 20 ]

Поделиться


Вернуться в Фокусы и трюки