Видео


Сообщение

Видео Yusuke Asada - Stella [DVDRip, Фокусы] (Видеоурок)

Сообщение stegrian » 26 янв 2013, 12:21

Yusuke Asada - Stella
Страна: Япония
Тематика: Фокусы
Тип раздаваемого материала: Видеоурок
Продолжительность: ~40 минут
Язык: Японский
Перевод: Отсутствует
Описание: (Осторожно, мунспик)
It’s a Chink-a-chink routine by the young Japanese magician, Yusuke Asada, who’s only 18 years old. With only four normal coins, this clean and amazing routine can be done perfectly.
Качество: DVDRip
Формат: m4v
Видео кодек: avc
Аудио кодек: aac
Видео: Video: MPEG4 Video (H264) 720x480 (11392:6453) Bit rate : 788 Kbps
Аудио: Audio: AAC 48000Hz stereo 1536kbps [Audio] Bit rate : 132 Kbps
MediaInfo
General
Complete name : C:\Users\Админ\Documents\Magic\Yusuke Asada - Stella\Yusuke Asada - Stella (explanation).m4v
Format : MPEG-4
Format profile : Base Media / Version 2
Codec ID : mp42
File size : 231 MiB
Duration : 34mn 51s
Overall bit rate mode : Variable
Overall bit rate : 927 Kbps
Encoded date : UTC 2011-03-21 01:54:08
Tagged date : UTC 2011-03-21 02:37:08
Writing application : HandBrake 0.9.5 2011010300
Video
ID : 1
Format : AVC
Format/Info : Advanced Video Codec
Format profile : High@L3.0
Format settings, CABAC : Yes
Format settings, ReFrames : 4 frames
Codec ID : avc1
Codec ID/Info : Advanced Video Coding
Duration : 34mn 51s
Bit rate mode : Variable
Bit rate : 788 Kbps
Width : 720 pixels
Height : 480 pixels
Display aspect ratio : 16:9
Original display aspect ratio : 16:9
Frame rate mode : Variable
Frame rate : 29.970 fps
Minimum frame rate : 9.990 fps
Maximum frame rate : 29.970 fps
Standard : NTSC
Color space : YUV
Chroma subsampling : 4:2:0
Bit depth : 8 bits
Scan type : Progressive
Bits/(Pixel*Frame) : 0.076
Stream size : 196 MiB (85%)
Writing library : x264 core 112
Encoding settings : cabac=1 / ref=3 / deblock=1:0:0 / analyse=0x3:0x113 / me=hex / subme=7 / psy=1 / psy_rd=1.00:0.00 / mixed_ref=1 / me_range=16 / chroma_me=1 / trellis=1 / 8x8dct=1 / cqm=0 / deadzone=21,11 / fast_pskip=1 / chroma_qp_offset=-2 / threads=3 / sliced_threads=0 / nr=0 / decimate=1 / interlaced=0 / constrained_intra=0 / bframes=3 / b_pyramid=2 / b_adapt=1 / b_bias=0 / direct=1 / weightb=1 / open_gop=0 / weightp=2 / keyint=300 / keyint_min=29 / scenecut=40 / intra_refresh=0 / rc_lookahead=40 / rc=crf / mbtree=1 / crf=20.0 / qcomp=0.60 / qpmin=3 / qpmax=51 / qpstep=4 / ip_ratio=1.40 / aq=1:1.00
Encoded date : UTC 2011-03-21 01:54:08
Tagged date : UTC 2011-03-21 02:37:08
Color primaries : BT.601-6 525, BT.1358 525, BT.1700 NTSC, SMPTE 170M
Transfer characteristics : BT.709-5, BT.1361
Matrix coefficients : BT.601-6 525, BT.1358 525, BT.1700 NTSC, SMPTE 170M
Audio
ID : 2
Format : AAC
Format/Info : Advanced Audio Codec
Format profile : LC
Codec ID : 40
Duration : 34mn 51s
Bit rate mode : Variable
Bit rate : 132 Kbps
Maximum bit rate : 241 Kbps
Channel(s) : 2 channels
Channel positions : Front: L R
Sampling rate : 48.0 KHz
Compression mode : Lossy
Stream size : 33.4 MiB (14%)
Language : Japanese
Encoded date : UTC 2011-03-21 01:54:08
Tagged date : UTC 2011-03-21 02:37:08
Text
ID : 3
Format : Apple text
Codec ID : text
Duration : 34mn 51s
Bit rate mode : Constant
Bit rate : 1 bps
Stream size : 240 Bytes (0%)
Encoded date : UTC 2011-03-21 01:54:08
Tagged date : UTC 2011-03-21 02:37:08
Скриншоты


Постеры

Соцсети

 

Статистика

Автор: stegrian
Добавлен: 26 янв 2013, 12:21
Размер: 260.21 МБ
Размер: 272 853 870 байт
Сидеров: 9
Личеров: 5
Скачали: 2
Здоровье: 100%
Раздающих: 100%
Скорость скачивания: 0 байт/сек
Скорость раздачи: 0 байт/сек
Последний сидер: 1 месяц 21 день 7 часов 42 минуты 28 секунд назад
Последний личер: 1 месяц 21 день 7 часов 42 минуты 28 секунд назад
Приватный: Нет (DHT включён)
Скачать торрент
Скачать торрент
[ Размер 10.78 КБ / Просмотров 7 ]

Поделиться


Вернуться в Фокусы и трюки