Видео


Сообщение

Видео Threefold effect by Pavel Klochkov / Утроенный эффект.Павел Клочков [2011, Карточные фокусы, HDRip, RUS] (Видеоурок)

Сообщение stegrian » 26 янв 2013, 12:21

Threefold effect by Pavel Klochkov / Утроенный эффект.Павел Клочков
Страна: Россия
Тематика: Карточные фокусы
Тип раздаваемого материала: Видеоурок
Продолжительность: 00:11:25
Год выпуска: 2011
Язык: Русский
Перевод: Не требуется
Язык субтитров: английский и русский
Описание: Произвольно выбранная карта подписывается с лицевой стороны,помечается с обратной стороны и помещается в середину колоды...После взмаха рукой карта с подписью оказывается наверху лицом вверх!! Еще один взмах и карта исчезает и оказывается в середине колоды!! Третий эффект добивает зрителей- подписанная карта меняет цвет!!!
Качество: HDRip
Формат: WMV
другие семинары Павла Клочкова
Карта сквозь экран ТВhttp://rutracker.org/forum/viewtopic.php?t=3727721
EMPTY-HANDED(манипуляции)http://rutracker.org/forum/viewtopic.php?t=3875503
тех.данные
File size : 421 MiB
Duration : 11mn 25s
Overall bit rate mode : Constant
Overall bit rate : 5 151 Kbps
Maximum Overall bit rate : 5 234 Kbps
Performer :
Encoded date : UTC 2011-11-13 18:16:54.146
Video
ID : 2
Format : VC-1
Format profile : AP@L3
Codec ID : WVC1
Codec ID/Hint : Microsoft
Description of the codec : Windows Media Video 9 Advanced Profile
Duration : 11mn 25s
Bit rate mode : Constant
Bit rate : 5 000 Kbps
Width : 1 920 pixels
Height : 1 080 pixels
Display aspect ratio : 16:9
Frame rate : 25.000 fps
Chroma subsampling : 4:2:0
Bit depth : 8 bits
Scan type : Mixed
Scan order : Bottom Field First
Compression mode : Lossy
Bits/(Pixel*Frame) : 0.096
Stream size : 409 MiB (97%)
Language : English (US)
Audio
ID : 1
Format : WMA
Format version : Version 2
Codec ID : 161
Codec ID/Info : Windows Media Audio
Description of the codec : Windows Media Audio 9.2 - 192 kbps, 48 kHz, stereo (A/V) 1-pass CBR
Duration : 11mn 25s
Bit rate mode : Constant
Bit rate : 192 Kbps
Channel(s) : 2 channels
Sampling rate : 48.0 KHz
Bit depth : 16 bits
Stream size : 15.7 MiB (4%)
Language : English (US)
Скриншоты

Постеры

Соцсети

 

Статистика

Автор: stegrian
Добавлен: 26 янв 2013, 12:21
Размер: 421.02 МБ
Размер: 441 473 685 байт
Сидеров: 17
Личеров: 6
Скачали: 2
Здоровье: 100%
Раздающих: 100%
Скорость скачивания: 0 байт/сек
Скорость раздачи: 0 байт/сек
Последний сидер: 1 месяц 21 день 6 часов 5 минут 47 секунд назад
Последний личер: 1 месяц 21 день 6 часов 5 минут 47 секунд назад
Приватный: Нет (DHT включён)
Скачать торрент
Скачать торрент
[ Размер 17 КБ / Просмотров 7 ]

Поделиться


Вернуться в Фокусы и трюки