Видео


Сообщение

Видео Yoann F - Oxygen [2011, Фокусы, CamRip ENG] (Видеоурок)

Сообщение stegrian » 26 янв 2013, 12:21

Yoann F - Oxygen
Страна: США
Тематика: Фокусы
Тип раздаваемого материала: Видеоурок
Продолжительность: Общая: 32:55
Год выпуска: 2011
Язык: Английский
Перевод: Не требуется
Описание: http://www.magicalsleight.com/index.php?page=cards&trick=oxygen
Description : This move allows you to control a card to the top or to the bottom of the deck. You can also use it to do a Force or a Switch. This move comes up with multiple variations and 4 tricks
Air : Four Aces are placed on the table and a card is selected. The card are placed betwwen the Aces and vanish to reappear face down in the middle of the pack. This trick is a variation of Earl Nelson's "Between Your Points of Departure" trick
Blueside : Four red backed Aces are on the table. Spectator selected a card in a blue backed deck. The red backed Aces morphed one at the time into the selected card. But this was just an illusion
Oxycolor : A very strong color changing deck routine
Sandy : A simple but effective sandwich trick
В комплект входят:
Oxygen - контроль карты наверх колоды или вниз, форс или свич.
4 фокуса.
Алсо бонусы.
Качество:CamRip
Видео: Video: MPEG4 Video (H264) 768x432 24.99fps [Video Media Handler (eng)], Bit rate : 1 463 Kbps
Аудио: Audio: AAC 48000Hz stereo 128Kbps [Sound Media Handler (eng)], Bit rate: 128 Kbps
MediaInfo
General
Complete name : C:\Users\Админ\Desktop\magic\Yoann F\Yoann F - Oxygen\MoveBox\Oxygen Moves Explanation.mp4
Format : MPEG-4
Format profile : Base Media / Version 2
Codec ID : mp42
File size : 116 MiB
Duration : 10mn 11s
Overall bit rate mode : Variable
Overall bit rate : 1 596 Kbps
Encoded date : UTC 2011-07-22 08:47:47
Tagged date : UTC 2011-07-22 08:47:47
Video
ID : 2
Format : AVC
Format/Info : Advanced Video Codec
Format profile : High@L4.0
Format settings, CABAC : Yes
Format settings, ReFrames : 2 frames
Format settings, GOP : M=2, N=13
Muxing mode : Container profile=Baseline@3.0
Codec ID : avc1
Codec ID/Info : Advanced Video Coding
Duration : 10mn 11s
Bit rate mode : Variable
Bit rate : 1 463 Kbps
Maximum bit rate : 16.0 Mbps
Width : 768 pixels
Height : 432 pixels
Display aspect ratio : 16:9
Frame rate mode : Constant
Frame rate : 25.000 fps
Color space : YUV
Chroma subsampling : 4:2:0
Bit depth : 8 bits
Scan type : Progressive
Bits/(Pixel*Frame) : 0.176
Stream size : 107 MiB (92%)
Language : English
Encoded date : UTC 2011-07-22 08:47:47
Tagged date : UTC 2011-07-22 08:47:47
Audio
ID : 1
Format : AAC
Format/Info : Advanced Audio Codec
Format profile : LC
Codec ID : 40
Duration : 10mn 11s
Bit rate mode : Constant
Bit rate : 128 Kbps
Channel(s) : 2 channels
Channel positions : Front: L R
Sampling rate : 48.0 KHz
Compression mode : Lossy
Stream size : 9.33 MiB (8%)
Language : English
Encoded date : UTC 2011-07-22 08:47:47
Tagged date : UTC 2011-07-22 08:47:47
Скриншоты


Постеры

Соцсети

 

Статистика

Автор: stegrian
Добавлен: 26 янв 2013, 12:21
Размер: 372.59 МБ
Размер: 390 684 024 байт
Сидеров: 20
Личеров: 8
Скачали: 2
Здоровье: 100%
Раздающих: 100%
Скорость скачивания: 0 байт/сек
Скорость раздачи: 0 байт/сек
Последний сидер: 1 месяц 23 дня 4 часа 47 минут 58 секунд назад
Последний личер: 1 месяц 23 дня 4 часа 47 минут 58 секунд назад
Приватный: Нет (DHT включён)
Скачать торрент
Скачать торрент
[ Размер 15.87 КБ / Просмотров 10 ]

Поделиться


Вернуться в Фокусы и трюки