Видео


Сообщение

Видео Ray Kosby - Impossible Card Magic [2000, Фокусы, VHSRip, ENG] (Видеоурок)

Сообщение stegrian » 26 янв 2013, 12:21

Ray Kosby - Impossible Card Magic
Страна: США
Тематика: Фокусы
Тип раздаваемого материала: Видеоурок
Продолжительность: 00:59:19
Год выпуска: 2000
Язык: Английский
Перевод: Отсутствует
Описание: Rarely will you find card magic as visually stunning as this. Ray Kosby's magic can only be seen to be believed. Prepare to be inspired!
Интересные и сложные фокусы. Не для новичков.
Tricks
Smudge
The card case is used as a vacuum cleaner to visually erase the center pip of a three. The three is now a two and an ace is found inside the card case.
Recased: The cards are removed from a card case and the case is put away. In an instant the case is back in your hand with the cards back inside.
Pac Jacks: A sandwich routine where fifty-one cards visually appear sandwiched between two jacks while the selection remains in the hand where the deck was a moment ago.
Deep Thought: A spectator thinks of a card seen in the deck. The deck is shuffled and fanned. A single card is pulled out of the fan so it sticks out of the deck. The spectator names her card as the deck is turned over to show the card sticking out of it is the thought-of selection.
Raise Rise: One of the routines Ray is best known for is this visual ambitious card sequence where a signed selection is placed near the bottom of the deck so it sticks out half its length. All of a sudden it visually jumps to the middle, near the top, it becomes the top card and finally ends up on the bottom of the deck -- you will not believe your eyes.
Venus Fly Trap: Two queens are placed together face up in the deck so they are sticking out for half their length. A card is selected and placed face down protruding from the deck. In an instant the two queens seem to jump through the deck and encircle the selection.
Half Right: A quick and visual torn-and-restored card routine where a card is torn in half and then restored as the spectator pulls it out of the deck.
Freedom of Choice: A spectator freely touches the backs of four cards as the deck is being spread between your hands. The touched cards are pushed forward. When the spread is turned up the four cards are shockingly seen to be the four aces.
Oil and Water: A devious three phase oil and water routine like no other. It is quick, visual and easy to follow as four red cards and four black cards magically separate and remix. The Other Cheek: Three selected cards are held face down in your hand. A quick shake causes them to visually turn face up one at a time. The effect and method are unbelievable.
Jack in Box: A jack is placed on top of a card case and in an instant it vanishes to reappear inside the case.
Out of Space: An impossible looking routine which begins with four kings. As the kings are counted three aces appear between them. The aces are placed on the table as the four kings magically change into the fourth ace.
MediaInfo
General
Complete name : C:\Users\Админ\Documents\Magic\Ray Kosby - Impossible Card Magic.wmv
Format : Windows Media
File size : 110 MiB
Duration : 59mn 18s
Overall bit rate mode : Constant
Overall bit rate : 259 Kbps
Maximum Overall bit rate : 265 Kbps
Encoded date : UTC 2004-11-25 22:32:03.180
Application : Windows Movie Maker 2.0.3312.0
Video
ID : 2
Format : VC-1
Format profile : MP@LL
Codec ID : WMV3
Codec ID/Info : Windows Media Video 9
Codec ID/Hint : WMV3
Description of the codec : Windows Media Video 9
Duration : 59mn 18s
Bit rate mode : Constant
Bit rate : 219 Kbps
Width : 320 pixels
Height : 240 pixels
Display aspect ratio : 4:3
Frame rate : 30.000 fps
Bit depth : 8 bits
Scan type : Progressive
Compression mode : Lossy
Bits/(Pixel*Frame) : 0.095
Stream size : 92.7 MiB (85%)
Language : English (US)
Audio
ID : 1
Format : WMA
Format version : Version 2
Codec ID : 161
Codec ID/Info : Windows Media Audio
Description of the codec : Windows Media Audio 9 - 32 kbps, 32 kHz, stereo (A/V) 1-pass CBR
Duration : 59mn 18s
Bit rate mode : Constant
Bit rate : 32.0 Kbps
Channel(s) : 2 channels
Sampling rate : 32.0 KHz
Bit depth : 16 bits
Stream size : 13.6 MiB (12%)
Language : English (US)
Качество: VHSRip
Формат: WMV
Видео кодек: WMVx
Аудио кодек: WMA
Видео: Video: Windows Media Video 9 320x240 30.00fps 218kbps [Raw Video 1]
Аудио: Audio: Windows Media Audio 32000Hz stereo 32kbps [Raw Audio 0]
Скриншоты


Постеры

Соцсети

 

Статистика

Автор: stegrian
Добавлен: 26 янв 2013, 12:21
Размер: 109.69 МБ
Размер: 115 023 470 байт
Сидеров: 16
Личеров: 4
Скачали: 2
Здоровье: 100%
Раздающих: 100%
Скорость скачивания: 0 байт/сек
Скорость раздачи: 0 байт/сек
Последний сидер: 1 месяц 19 дней 5 часов 31 минуту 9 секунд назад
Последний личер: 1 месяц 19 дней 5 часов 31 минуту 9 секунд назад
Приватный: Нет (DHT включён)
Скачать торрент
Скачать торрент
[ Размер 17.7 КБ / Просмотров 6 ]

Поделиться


Вернуться в Фокусы и трюки