Видео


Сообщение

Видео Michael Feldman - End-for-End (DanАndDave.com) [2010, Фокусы и трюки, ENG] (Видеоурок)

Сообщение stegrian » 26 янв 2013, 12:21

Michael Feldman - End-for-End (DanАndDave.com)
Страна: США
Тематика: Фокусы и трюки
Тип раздаваемого материала: Видеоурок
Продолжительность: 00:20:24
Год выпуска: 2010
Язык: Английский
Перевод: Отсутствует
Описание: Несколько визуальных эффектов от Майкла Фелдмана. Зритель наблюдает, как простая пишушая ручка исчезает, проявляется, а затем меняет цвет. И всё это прямо перед вашими глазами.
Доп. информация: http://vimeo.com/15850562
Качество: DVDRip
Формат: FLV
Видео кодек: AAC
Аудио кодек: AAC
Системные требования: 238 мб
Media Info
Формат : MPEG-4
Профиль формата : QuickTime
Идентификатор кодека : qt
Размер файла : 223 Мбайт
Продолжительность : 20 м.
Общий поток : 1524 Кбит/сек
Дата кодирования : UTC 2010-10-19 18:35:51
Дата пометки : UTC 2010-10-19 18:36:17
Библиотека кодирования : Apple QuickTime
Видео
Идентификатор : 2
Формат : AVC
Формат/Информация : Advanced Video Codec
Профиль формата : Main@L3.0
Параметр CABAC формата : Нет
Параметр ReFrames формата : 2 кадра
Идентификатор кодека : avc1
Идентификатор кодека/Информация : Advanced Video Coding
Продолжительность : 20 м.
Битрейт : 1412 Кбит/сек
Ширина : 640 пикселей
Высота : 360 пикселей
Соотношение сторон : 16:9
Режим частоты кадров : Переменный
Частота кадров : 29,970 кадров/сек
Минимальная частота кадров : 28,571 кадров/сек
Максимальная частота кадров : 31,579 кадра/сек
Цветовое пространство : YUV
Субдискретизация насыщенности : 4:2:0
Битовая глубина : 8 бит
Тип развёртки : Прогрессивная
Бит/(Пиксели*Кадры) : 0.204
Размер потока : 206 Мбайт (93%)
Язык : English
Дата кодирования : UTC 2010-10-19 18:34:44
Дата пометки : UTC 2010-10-19 18:36:17
Основные цвета : BT.601 NTSC
Характеристики трансфера : BT.709
Коэффициенты матрицы : BT.601
Аудио
Идентификатор : 1
Формат : AAC
Формат/Информация : Advanced Audio Codec
Профиль формата : LC
Идентификатор кодека : 40
Продолжительность : 20 м.
Продолжительность оригинала : 20 м.
Вид битрейта : Постоянный
Битрейт : 106 Кбит/сек
Номинальный битрейт : 128 Кбит/сек
Каналы : 2 канала
Расположение каналов : Front: L R
Частота : 48,0 КГц
Метод сжатия : С потерями
Размер потока : 15,5 Мбайт (7%)
Размер потока оригинала : 15,5 Мбайт (7%)
Язык : English
Дата кодирования : UTC 2010-10-19 18:34:44
Скриншоты

Постеры

Соцсети

 

Статистика

Автор: stegrian
Добавлен: 26 янв 2013, 12:21
Размер: 238.97 МБ
Размер: 250 576 960 байт
Сидеров: 12
Личеров: 4
Скачали: 12
Здоровье: 100%
Раздающих: 100%
Скорость скачивания: 0 байт/сек
Скорость раздачи: 0 байт/сек
Последний сидер: 1 месяц 23 дня 4 часа 35 минут 38 секунд назад
Последний личер: 1 месяц 23 дня 4 часа 35 минут 38 секунд назад
Приватный: Нет (DHT включён)
Скачать торрент
Скачать торрент
[ Размер 19.45 КБ / Просмотров 11 ]

Поделиться


Вернуться в Фокусы и трюки