Видео


Сообщение

Видео Павел Клочков -"Выбор" / "An option" by Pavel Klochkov [2012, фокусы, HDTVRip, RUS] (Видеоурок)

Сообщение stegrian » 26 янв 2013, 12:21

Павел Клочков -"Выбор" / "An option" by Pavel Klochkov
Страна: Россия
Тематика: фокусы
Тип раздаваемого материала: Видеоурок
Продолжительность: 00:10
Год выпуска: 2012
Язык: Русский
Перевод: Не требуется
Описание: Эффект: Зритель выбирает карту совершенно произвольно,видя все карты с лицевой стороны и подписывает выбранную карту. Фокусник убирает карту в середину колоды и без каких-либо лишних движений раскывает все карты рубашкой вверх...Все карты красные кроме одной! И это именно та самая подписанная карта выбранная зрителем!!!
Потрясающий ментальный эффект! Стандартная колода карт! Фокусник помещает всего одну синюю карту-предсказание в красную колоду карт и зритель выбирает именно эту карту!
Другие семинары Павла Клочкова
Карта сквозь экран ТВ http://rutracker.org/forum/viewtopic.php?t=3727721
Threefold effect http://rutracker.org/forum/viewtopic.php?t=3818558
Empty-handed(манипуляции) http://rutracker.org/forum/viewtopic.php?t=3875503
The other way http://rutracker.org/forum/viewtopic.php?t=3945373
DVD "Избранное" http://rutracker.org/forum/viewtopic.php?t=4090551
Качество: HDTVRip
Формат: AVI
Тех.данные
Format : AVI
Format/Info : Audio Video Interleave
File size : 350 MiB
Duration : 10mn 14s
Overall bit rate : 4 778 Kbps
Writing application : MEncoder SVN-r30881(20100311-gcc4.3.3)
Writing library : MPlayer
Video
ID : 0
Format : MPEG-4 Visual
Format profile : Advanced Simple@L5
Format settings, BVOP : 2
Format settings, QPel : No
Format settings, GMC : No warppoints
Format settings, Matrix : Default (H.263)
Codec ID : XVID
Codec ID/Hint : XviD
Duration : 10mn 14s
Bit rate : 4 638 Kbps
Width : 1 280 pixels
Height : 720 pixels
Display aspect ratio : 16:9
Frame rate : 25.000 fps
Color space : YUV
Chroma subsampling : 4:2:0
Bit depth : 8 bits
Scan type : Progressive
Compression mode : Lossy
Bits/(Pixel*Frame) : 0.201
Stream size : 340 MiB (97%)
Writing library : XviD 1.2.1 (UTC 2008-12-04)
Audio
ID : 1
Format : MPEG Audio
Format version : Version 1
Format profile : Layer 3
Mode : Joint stereo
Mode extension : MS Stereo
Codec ID : 55
Codec ID/Hint : MP3
Duration : 10mn 13s
Bit rate mode : Constant
Bit rate : 128 Kbps
Channel(s) : 2 channels
Sampling rate : 44.1 KHz
Compression mode : Lossy
Delay relative to video : 40ms
Stream size : 9.37 MiB (3%)
Alignment : Aligned on interleaves
Interleave, duration : 26 ms (0.65 video frame)
Interleave, preload duration : 522 ms
Скриншоты

Постеры

Соцсети

 

Статистика

Автор: stegrian
Добавлен: 26 янв 2013, 12:21
Размер: 349.79 МБ
Размер: 366 780 864 байт
Сидеров: 27
Личеров: 5
Скачали: 3
Здоровье: 100%
Раздающих: 100%
Скорость скачивания: 0 байт/сек
Скорость раздачи: 0 байт/сек
Последний сидер: 1 месяц 19 дней 5 часов 27 минут 37 секунд назад
Последний личер: 1 месяц 19 дней 5 часов 27 минут 37 секунд назад
Приватный: Нет (DHT включён)
Скачать торрент
Скачать торрент
[ Размер 14.26 КБ / Просмотров 11 ]

Поделиться


Вернуться в Фокусы и трюки