Видео


Сообщение

Видео Ultimate LRB by Joshua Millman [2012, MAGIC!, DVDRip, ENG] (Видеоурок)

Сообщение stegrian » 26 янв 2013, 12:22

Ultimate LRB by Joshua Millman / Ultimate LRB by Joshua Millman
Страна: LAS VEGAS
Тематика: MAGIC!
Тип раздаваемого материала: Видеоурок
Продолжительность: 00:13:41
Год выпуска: 2012
Язык: Английский
Перевод: Отсутствует
Описание: Just tap a rubber band against any small object, and they link!
- Over ten minutes of instruction on the making of the gimmick
- 3 Methods taught (same basic principle)
- Ends TOTALLY CLEAN
Вы жмёте резинкой на любой маленький предмет и они соединяются!
-Больше десяти минут обучения построения гиммика
-3 метода
-Конец ОЧЕНЬ ЧИСТЫЙ
Доп. информация: Демонстрация: http://www.theory11.com/wire/steve-millman/ultimate-lrb/
Качество: DVDRip
Формат: MP4
Аудио кодек: AAC
Видео: Кодек: H264 - MPEG-4 AVC (part 10) (avc1) Разрешение: 640x360 Частота кадров: 29.970029
Аудио: Кодек: MPEG AAC Audio (mp4a) Частота дискретизации: 44100 Гц
Скриншоты


MEDIAINFO
General
Complete name : C:\Users\0\Videos\RealPlayer Downloads\Ultimate LRB by Joshua Millman.mp4
Format : MPEG-4
Format profile : Base Media
Codec ID : isom
File size : 111 MiB
Duration : 13mn 41s
Overall bit rate mode : Variable
Overall bit rate : 1 131 Kbps
Encoded date : UTC 2012-12-22 14:47:14
Tagged date : UTC 2012-12-22 14:47:14
Video
ID : 2
Format : AVC
Format/Info : Advanced Video Codec
Format profile : Baseline@L3.0
Format settings, CABAC : No
Format settings, ReFrames : 1 frame
Format settings, GOP : M=1, N=10
Codec ID : avc1
Codec ID/Info : Advanced Video Coding
Duration : 13mn 40s
Bit rate mode : Variable
Bit rate : 1 006 Kbps
Maximum bit rate : 1 500 Kbps
Width : 640 pixels
Height : 360 pixels
Display aspect ratio : 16:9
Frame rate mode : Constant
Frame rate : 29.970 fps
Color space : YUV
Chroma subsampling : 4:2:0
Bit depth : 8 bits
Scan type : Progressive
Bits/(Pixel*Frame) : 0.146
Stream size : 98.4 MiB (89%)
Language : English
Audio
ID : 1
Format : AAC
Format/Info : Advanced Audio Codec
Format profile : LC
Codec ID : 40
Duration : 13mn 41s
Bit rate mode : Constant
Bit rate : 120 Kbps
Channel(s) : 2 channels
Channel positions : Front: L R
Sampling rate : 44.1 KHz
Compression mode : Lossy
Stream size : 11.8 MiB (11%)
Language : English

Постеры

Соцсети

 

Статистика

Автор: stegrian
Добавлен: 26 янв 2013, 12:22
Размер: 110.69 МБ
Размер: 116 067 098 байт
Сидеров: 51
Личеров: 17
Скачали: 2
Здоровье: 100%
Раздающих: 100%
Скорость скачивания: 0 байт/сек
Скорость раздачи: 0 байт/сек
Последний сидер: 1 месяц 21 день 6 часов 23 минуты 27 секунд назад
Последний личер: 1 месяц 21 день 6 часов 23 минуты 27 секунд назад
Приватный: Нет (DHT включён)
Скачать торрент
Скачать торрент
[ Размер 17.79 КБ / Просмотров 11 ]

Поделиться


Вернуться в Фокусы и трюки