Видео


Сообщение

Видео Jason England - Overhand Shuffle [2011, DVDRip, ENG] (Видеоурок)

Сообщение Таточка » 26 янв 2013, 16:27

Jason England - Overhand Shuffle
Страна: USA
Тип раздаваемого материала: Видеоурок
Продолжительность: 00:35:02
Год выпуска: 2011
Язык: Английский
Перевод: Отсутствует
Описание:
Оригинал: A staple move in the fundamentals of card magic - a false shuffle. A utility move that has existed for centuries, now taught in intricate detail by Jason England in this 35 minute video.
Перевод: Основное движение в основных принципах карточной магии - ложная тасовка. Движение, которое существовало в течение многих столетий, теперь преподано в подробных деталях Джейсоном Энглэндом в этом 35-минутном видео.
От себя: Видео, которое не вошло в Foundations. Полная классика. Большинство может уже все и так знают. Джейсон рассаказывает про безграничные возможности Overhand Shuffle. От обычной тасовки и контроля одной карты до контроля всей колоды и сдачи отличных покерных рук. Все по S. W. Erdnase.
Смотреть трейлер
Качество: DVDRip
Формат: MOV
MediaInfo:
Общее
Формат : QuickTime
Формат/Информация : Original Apple specifications
Размер файла : 562 Мбайт
Продолжительность : 35 м.
Общий поток : 2244 Кбит/сек
Дата кодирования : UTC 2011-10-21 22:01:59
Дата пометки : UTC 2011-10-21 23:02:59
Библиотека кодирования : Apple QuickTime
Видео
Идентификатор : 1
Формат : AVC
Формат/Информация : Advanced Video Codec
Профиль формата : Baseline@L3.0
Параметр CABAC формата : Нет
Параметр ReFrames формата : 2 кадра
Идентификатор кодека : avc1
Идентификатор кодека/Информация : Advanced Video Coding
Продолжительность : 35 м.
Битрейт : 1984 Кбит/сек
Ширина : 640 пикселей
Высота : 360 пикселей
Соотношение сторон : 16:9
Режим частоты кадров : Постоянный
Частота кадров : 29,970 кадров/сек
Цветовое пространство : YUV
Субдискретизация насыщенности : 4:2:0
Битовая глубина : 8 бит
Тип развёртки : Прогрессивная
Бит/(Пиксели*Кадры) : 0.287
Размер потока : 497 Мбайт (88%)
Язык : English
Дата кодирования : UTC 2011-10-21 22:01:59
Дата пометки : UTC 2011-10-21 23:02:59
Основные цвета : BT.601-6 525, BT.1358 525, BT.1700 NTSC, SMPTE 170M
Характеристики трансфера : BT.709-5, BT.1361
Коэффициенты матрицы : BT.601-6 525, BT.1358 525, BT.1700 NTSC, SMPTE 170M
Аудио
Идентификатор : 2
Формат : AAC
Формат/Информация : Advanced Audio Codec
Профиль формата : LC
Идентификатор кодека : 40
Продолжительность : 35 м.
Вид битрейта : Постоянный
Битрейт : 256 Кбит/сек
Каналы : 2 канала
Расположение каналов : Front: L R
Частота : 48,0 КГц
Метод сжатия : С потерями
Размер потока : 64,2 Мбайт (11%)
Язык : English
Дата кодирования : UTC 2011-10-21 22:01:59
Дата пометки : UTC 2011-10-21 23:02:59
Скриншоты

Постеры

Соцсети

 

Статистика

Автор: Таточка
Добавлен: 26 янв 2013, 16:27
Размер: 562.83 МБ
Размер: 590 165 034 байт
Сидеров: 30
Личеров: 5
Скачали: 4
Здоровье: 100%
Раздающих: 100%
Скорость скачивания: 0 байт/сек
Скорость раздачи: 0 байт/сек
Последний сидер: 1 месяц 23 дня 4 часа 40 минут 35 секунд назад
Последний личер: 1 месяц 23 дня 4 часа 40 минут 35 секунд назад
Приватный: Нет (DHT включён)
Скачать торрент
Скачать торрент
[ Размер 45.04 КБ / Просмотров 18 ]

Поделиться


Вернуться в Фокусы и трюки