Видео


Сообщение

Видео Robert Smith (B. Smith) - Salvation [2011, Фокусы, CamRip, ENG] (Видеоурок)

Сообщение Таточка » 26 янв 2013, 16:28

Robert Smith (B. Smith) - Salvation
Страна: США
Тематика: Фокусы
Тип раздаваемого материала: Видеоурок
Продолжительность: 15:36
Год выпуска: 2011
Язык: Английский
Перевод: Не требуется
Описание: As you read this, you will feel the urge to lick your lips... shortly after you will be wishing you had the relief that only chapstick can offer. Your salvation awaits you as check your pockets only to come out empty handed.
Onlookers see your desire as you slowly wave your empty hand and they VISUALLY see the slow, magical APPEARANCE of chapstick! A killer opener with a common item! Perform with or without saying a word! Easy to do - a very clever gimmick does the work for you. No difficult sleight of hand required - it simply materializes in your hand! Also includes an IMPROMPTU version!
После легкого взмаха руки на пустой до этого ладони появляется губная помада.
http://www.theory11.com/wire/robert-smith/salvation/
Качество:CamRip
Формат: MOV
Видео кодек: H.264
Аудио кодек: AAC
Видео: Video: MPEG4 Video (H264) 640x360 23.97fps [Apple Video Media Handler], Bit rate : 1 751 Kbps
Аудио: Audio: AAC 48000Hz stereo 256Kbps [Apple Sound Media Handler], Bit rate : 256 Kbps
MediaInfo
General
Complete name : C:\Users\Админ\Desktop\magic\B.Smith - Salvation.mov
Format : QuickTime
Format/Info : Original Apple specifications
File size : 224 MiB
Duration : 15mn 36s
Overall bit rate : 2 011 Kbps
Encoded date : UTC 2011-09-02 11:00:35
Tagged date : UTC 2011-09-02 11:34:09
Writing library : Apple QuickTime
Video
ID : 1
Format : AVC
Format/Info : Advanced Video Codec
Format profile : Baseline@L3.0
Format settings, CABAC : No
Format settings, ReFrames : 2 frames
Codec ID : avc1
Codec ID/Info : Advanced Video Coding
Duration : 15mn 36s
Bit rate : 1 751 Kbps
Width : 640 pixels
Height : 360 pixels
Display aspect ratio : 16:9
Frame rate mode : Constant
Frame rate : 23.976 fps
Color space : YUV
Chroma subsampling : 4:2:0
Bit depth : 8 bits
Scan type : Progressive
Bits/(Pixel*Frame) : 0.317
Stream size : 195 MiB (87%)
Language : English
Encoded date : UTC 2011-09-02 11:00:35
Tagged date : UTC 2011-09-02 11:34:09
Color primaries : BT.601-6 525, BT.1358 525, BT.1700 NTSC, SMPTE 170M
Transfer characteristics : BT.709-5, BT.1361
Matrix coefficients : BT.601-6 525, BT.1358 525, BT.1700 NTSC, SMPTE 170M
Audio
ID : 2
Format : AAC
Format/Info : Advanced Audio Codec
Format profile : LC
Codec ID : 40
Duration : 15mn 36s
Bit rate mode : Constant
Bit rate : 256 Kbps
Channel(s) : 2 channels
Channel positions : Front: L R
Sampling rate : 48.0 KHz
Compression mode : Lossy
Stream size : 28.6 MiB (13%)
Language : English
Encoded date : UTC 2011-09-02 11:00:35
Tagged date : UTC 2011-09-02 11:34:09
Скриншоты


Постеры

Соцсети

 

Статистика

Автор: Таточка
Добавлен: 26 янв 2013, 16:28
Размер: 224.4 МБ
Размер: 235 299 540 байт
Сидеров: 10
Личеров: 2
Скачали: 1
Здоровье: 100%
Раздающих: 100%
Скорость скачивания: 0 байт/сек
Скорость раздачи: 0 байт/сек
Последний сидер: 1 месяц 18 дней 9 часов 35 минут 2 секунды назад
Последний личер: 1 месяц 18 дней 9 часов 35 минут 2 секунды назад
Приватный: Нет (DHT включён)
Скачать торрент
Скачать торрент
[ Размер 18.01 КБ / Просмотров 6 ]

Поделиться


Вернуться в Фокусы и трюки