Видео


Сообщение

Видео Laser Anywhere by Adrian Man: Volume 1,2 [2007, Манипуляции с CD дисками, ENG] (Видеоурок)

Сообщение Таточка » 26 янв 2013, 16:30

Laser Anywhere by Adrian Man: Volume 1,2
Страна: США, Китай
Тематика: Манипуляции с CD дисками
Тип раздаваемого материала: Видеоурок
Продолжительность: 01:30:58 + 00:46:33
Год выпуска: 2007
Язык: 1 часть - Английский, 2 - Cantonese (Китайский)
Перевод: Отсутствует, все наглядно демонстрируется, так что понятно без перевода.
Превью: |
Описание: "Laser Anywhere" is a complete course of CD Manipulation. In Volume 1, Adrian Man, a Hong Kong award winning magician, will teach you everything on CD Manipulation. Adrian covers every topics of CD Manipulation including Palming, Production, Holder, Body Steal, etc. Besides, at the very first time, Adrian also teaches you the "Split Fan Production with CDs" and "Jumbo CD Production Routine", which are the highlights of his award winning act!
In the Volume 2 of "Laser Anywhere", Adrian mainly focuses on the manipulation of Mini-CD. You should find that the techniques of Mini-CD and CD are totally different, and Adrian will show you every single technique of Mini-CD Manipulation including Palming, Transposition, Transformation, etc. Through the clear explanation of Adrian, you are able to learn all of the techniques step by step easily. You can even apply all the techniques in the Jumbo Coin manipulation.
Одно из редких видео по манипуляциям с CD дисками.
MediaInfo Vol 1
Код:
Код: Выделить всё
Общее
Полное имя                               : D:\Video\Laser Anywhere by Adrian Man\Laser Anywhere by Adrian Man - Volume 1.avi
Формат                                   : AVI
Формат/Информация                        : Audio Video Interleave
Размер файла                             : 350 Мбайт
Продолжительность                        : 1 ч. 30 м.
Общий поток                              : 538 Кбит/сек
Программа кодирования                    : FairUse Wizard - http:/fairusewizard.com
Библиотека кодирования                   : The best and REALLY easy backup tool
Видео
Идентификатор                            : 0
Формат                                   : MPEG-4 Visual
Профиль формата                          : Advanced Simple@L5
Параметр BVOP формата                    : 1
Параметр QPel формата                    : Нет
Параметр GMC формата                     : Без точки перехода
Параметр матрицы формата                 : Default (H.263)
Режим смешивания                         : Сжатый битовый поток
Идентификатор кодека                     : XVID
Идентификатор кодека/Подсказка           : XviD
Продолжительность                        : 1 ч. 30 м.
Битрейт                                  : 398 Кбит/сек
Ширина                                   : 320 пикселей
Высота                                   : 224 пикселя
Соотношение сторон                       : 1,429
Частота кадров                           : 29,970 кадров/сек
Цветовое пространство                    : YUV
Субдискретизация насыщенности            : 4:2:0
Битовая глубина                          : 8 бит
Тип развёртки                            : Прогрессивная
Метод сжатия                             : С потерями
Бит/(Пиксели*Кадры)                      : 0.185
Размер потока                            : 259 Мбайт (74%)
Библиотека кодирования                   : XviD 1.1.0 (UTC 2005-11-22)
Аудио
Идентификатор                            : 1
Формат                                   : MPEG Audio
Версия формата                           : Version 1
Профиль формата                          : Layer 3
Режим                                    : Joint stereo
Расширение режима                        : MS Stereo
Идентификатор кодека                     : 55
Идентификатор кодека/Подсказка           : MP3
Продолжительность                        : 1 ч. 30 м.
Вид битрейта                             : Постоянный
Битрейт                                  : 128 Кбит/сек
Каналы                                   : 2 канала
Частота                                  : 48,0 КГц
Метод сжатия                             : С потерями
Размер потока                            : 83,3 Мбайт (24%)
Выравнивание                             : Соединение по промежуткам
Продолжительность промежутка             : 33  мс. (1,00 видеокадр)
Время предзагрузки промежутка            : 504  мс.
Библиотека кодирования                   : LAME3.97b
Настройки программы                      : -m j -V 4 -q 2 -lowpass 17 -b 128

MediaInfo Vol 2
Код:
Код: Выделить всё
Общее
Полное имя                               : D\Video\Laser Anywhere by Adrian Man\Laser Anywhere by Adrian Man - Volume 2.avi
Формат                                   : AVI
Формат/Информация                        : Audio Video Interleave
Размер файла                             : 373 Мбайт
Продолжительность                        : 46 м.
Режим общего битрейта                    : Переменный
Общий поток                              : 1120 Кбит/сек
Библиотека кодирования                   : VirtualDub build 24415/release
Видео
Идентификатор                            : 0
Формат                                   : MPEG-4 Visual
Профиль формата                          : Simple@L1
Параметр BVOP формата                    : Нет
Параметр QPel формата                    : Нет
Параметр GMC формата                     : Без точки перехода
Параметр матрицы формата                 : Default (H.263)
Идентификатор кодека                     : DX50
Идентификатор кодека/Подсказка           : DivX 5
Продолжительность                        : 46 м.
Битрейт                                  : 1009 Кбит/сек
Ширина                                   : 640 пикселей
Высота                                   : 368 пикселей
Соотношение сторон                       : 16:9
Частота кадров                           : 25,000 кадров/сек
Цветовое пространство                    : YUV
Субдискретизация насыщенности            : 4:2:0
Битовая глубина                          : 8 бит
Тип развёртки                            : Прогрессивная
Метод сжатия                             : С потерями
Бит/(Пиксели*Кадры)                      : 0.171
Размер потока                            : 336 Мбайт (90%)
Аудио
Идентификатор                            : 1
Формат                                   : MPEG Audio
Версия формата                           : Version 2
Профиль формата                          : Layer 3
Режим                                    : Joint stereo
Расширение режима                        : MS Stereo
Идентификатор кодека                     : 55
Идентификатор кодека/Подсказка           : MP3
Продолжительность                        : 46 м.
Вид битрейта                             : Переменный
Битрейт                                  : 101 Кбит/сек
Каналы                                   : 2 канала
Частота                                  : 22,05 КГц
Метод сжатия                             : С потерями
Размер потока                            : 33,8 Мбайт (9%)
Выравнивание                             : Разделение по промежуткам
Продолжительность промежутка             : 39  мс. (0,98 видеокадр)
Время предзагрузки промежутка            : 473  мс.

Laser Anywhere Volume 1 contains these incredible effects:
Introduction
Tenkai Palm
Perfect Palm
Waist Palm
Toss Vanish
Flash Vanish
Drop Vanish
Knock Vanish & Production
Perfect Single Production
Tenkai Single Production
Perfect Multi-Production
CD Transfer
3 CDs Vanish & Production
CD Vanish & Production with Silk
4 CDs Production Routine with Silk
Color-Changing CD #1
Color-Changing CD #2
CD Fanning
Split Fan with CDs
Mini-CD to CD
Flash-Paper to CD
CD to Confetti
CD Holder
Body Steal
Jumbo CD Production Routine
CD Manipulation Routine #1
CD Manipulation Routine #2
Adrian's CD Routine
Laser Anywhere Volume 2 contains these incredible effects:
Mini-CD Tenkai Palm
Mini-CD Perfect Palm
Mini-CD Back Palm
Mini-CD Tenkai Production
Mini-CD Perfect Production
Mini-CD Tenkai Multi-Production
Mini-CD Perfect Multi-Production
Mini-CD Back Palm Vanish & Production
Mini-CD Split Production
Mini-CD Toss Vanish
Mini-CD Retention Vanish
Mini-CD Transfer
Transposition #1
Transposition #2
Mini-CD Transposition
CD to Mini-CD with CD Case
Ball to Mini-CD
Mini-CD Acquitment
Mini-CD Routine
Скриншоты Vol 1
Скриншоты Vol 2

Постеры

Соцсети

 

Статистика

Автор: Таточка
Добавлен: 26 янв 2013, 16:30
Размер: 723 МБ
Размер: 758 115 684 байт
Сидеров: 40
Личеров: 32
Скачали: 2
Здоровье: 100%
Раздающих: 100%
Скорость скачивания: 0 байт/сек
Скорость раздачи: 0 байт/сек
Последний сидер: 1 месяц 21 день 6 часов 11 минут 22 секунды назад
Последний личер: 1 месяц 21 день 6 часов 11 минут 22 секунды назад
Приватный: Нет (DHT включён)
Скачать торрент
Скачать торрент
[ Размер 14.74 КБ / Просмотров 24 ]

Поделиться


Вернуться в Фокусы и трюки