Видео


Сообщение

Видео 21 by Shin Lim, Donald Carlson & Jose Morales [2012, Карточное манипулирование, DVDRip, ENG] (Видеоурок)

Сообщение Таточка » 26 янв 2013, 16:33

21 by Shin Lim, Donald Carlson & Jose Morales
Страна: USA
Тематика: Карточное манипулирование
Тип раздаваемого материала: Видеоурок
Продолжительность: 02:10:11
Год выпуска: 2012
Язык: Английский
Перевод: Отсутствует
Описание: Флориши, сменки, несколько фокусов и т.д.
Доп. информация: Превью и описание на английском
Качество: DVDRip
Формат: MPG
Видео кодек: VC-1
Аудио кодек: AAC
Видео: AVC, 720x480, (3:2), 1498kbps, 23,976fps
Аудио: AAC, 128kbps, 44,1kHz, 2ch
Скриншоты


MediaInfo
Код:
Код: Выделить всё
Общее
Полное имя                               : C:\Users\msi\Downloads\21_by_Shin_Lim__Donald_Carlson___Jose_Morales\21 by Shin Lim, Donald Carlson & Jose Morales.mp4
Формат                                   : MPEG-4
Профиль формата                          : Base Media
Идентификатор кодека                     : isom
Размер файла                             : 1,48 Гбайт
Продолжительность                        : 2 ч. 10 м.
Режим общего битрейта                    : Переменный
Общий поток                              : 1630 Кбит/сек
Дата кодирования                         : UTC 2012-11-23 09:30:10
Дата пометки                             : UTC 2012-11-23 09:30:10
Видео
Идентификатор                            : 2
Формат                                   : AVC
Формат/Информация                        : Advanced Video Codec
Профиль формата                          : Baseline@L3.0
Параметр CABAC формата                   : Нет
Параметр ReFrames формата                : 1 кадр
Параметр GOP формата                     : M=1, N=10
Идентификатор кодека                     : avc1
Идентификатор кодека/Информация          : Advanced Video Coding
Продолжительность                        : 2 ч. 10 м.
Вид битрейта                             : Переменный
Битрейт                                  : 1498 Кбит/сек
Максимальный битрейт                     : 2250 Кбит/сек
Ширина                                   : 720 пикселей
Высота                                   : 480 пикселей
Соотношение сторон                       : 3:2
Режим частоты кадров                     : Постоянный
Частота кадров                           : 23,976 кадра/сек
Стандарт вещания                         : NTSC
Цветовое пространство                    : YUV
Субдискретизация насыщенности            : 4:2:0
Битовая глубина                          : 8 бит
Тип развёртки                            : Прогрессивная
Бит/(Пиксели*Кадры)                      : 0.181
Размер потока                            : 1,36 Гбайт (92%)
Язык                                     : English
Аудио
Идентификатор                            : 1
Формат                                   : AAC
Формат/Информация                        : Advanced Audio Codec
Профиль формата                          : LC
Идентификатор кодека                     : 40
Продолжительность                        : 2 ч. 10 м.
Вид битрейта                             : Постоянный
Битрейт                                  : 128 Кбит/сек
Каналы                                   : 2 канала
Расположение каналов                     : Front: L R
Частота                                  : 44,1 КГц
Метод сжатия                             : С потерями
Размер потока                            : 119 Мбайт (8%)
Язык                                     : English

Постеры

Соцсети

 

Статистика

Автор: Таточка
Добавлен: 26 янв 2013, 16:33
Размер: 1.48 ГБ
Размер: 1 591 733 713 байт
Сидеров: 75
Личеров: 9
Скачали: 7
Здоровье: 100%
Раздающих: 100%
Скорость скачивания: 0 байт/сек
Скорость раздачи: 0 байт/сек
Последний сидер: 1 месяц 19 дней 5 часов 29 минут 51 секунду назад
Последний личер: 1 месяц 19 дней 5 часов 29 минут 51 секунду назад
Приватный: Нет (DHT включён)
Скачать торрент
Скачать торрент
[ Размер 15.33 КБ / Просмотров 31 ]

Поделиться


Вернуться в Фокусы и трюки