Видео


Сообщение

Видео Center Point by Patrick Kun [2011, Карты, ENG, DVDRip] (Видеоурок)

Сообщение Таточка » 26 янв 2013, 16:33

Center Point by Patrick Kun
Страна: США
Тематика: Карты
Тип раздаваемого материала: Видеоурок
Продолжительность: 24 мин.
Год выпуска: 2011
Язык: Английский
Перевод: Отсутствует
Описание: There's no way a card appears that fast without a gimmick. But it does, and there isn't. Impromptu through and through.
A selected signed card is lost back into the deck, only to instantly appear between two visible jokers. Their card then vanishes from between the jokers back into the deck, and finally vanishes from the deck only to appears between the spectators hands.
Center Point is a 3 phase visual sandwich routine that is so visually powerful that it can be ended after the first or second phase. Each segment is that strong.
Patrick includes several handlings on each phase for you to choose depending on what style fits you the best. This effect can be done with no preparation. It can be used to end an Ambitious Card routine or be a stand alone effect itself.
Быстрое появление карты в середине колоды без гиммика.
Превью:
Качество: DVDRip
Формат: MP4
Аудио кодек: AAC
Видео: MPEG4 Video 320x240 29.97fps 773kbps
Аудио: AAC 48000Hz stereo 127kbps
MediaInfo
Код:
Код: Выделить всё
General
Complete name                  : D:\Video\Patrick Kun - Center Point.mp4
Format                         : MPEG-4
Format profile                 : Base Media
Codec ID                       : isom
File size                      : 156 MiB
Duration                       : 24mn 6s
Overall bit rate mode          : Variable
Overall bit rate               : 907 Kbps
Movie name                     : Patrick Kun - Center Point
Writing application            : Lavf51.6.0
Video
ID                             : 1
Format                         : MPEG-4 Visual
Format profile                 : Simple@L1
Format settings, BVOP          : No
Format settings, QPel          : No
Format settings, GMC           : No warppoints
Format settings, Matrix        : Default (H.263)
Codec ID                       : 20
Duration                       : 24mn 6s
Bit rate                       : 774 Kbps
Width                          : 320 pixels
Height                         : 240 pixels
Display aspect ratio           : 4:3
Frame rate mode                : Constant
Frame rate                     : 29.970 fps
Color space                    : YUV
Chroma subsampling             : 4:2:0
Bit depth                      : 8 bits
Scan type                      : Progressive
Compression mode               : Lossy
Bits/(Pixel*Frame)             : 0.336
Stream size                    : 133 MiB (85%)
Writing library                : Lavc51.25.0
Audio
ID                             : 2
Format                         : AAC
Format/Info                    : Advanced Audio Codec
Format profile                 : LC
Codec ID                       : 40
Duration                       : 24mn 6s
Bit rate mode                  : Variable
Bit rate                       : 128 Kbps
Channel(s)                     : 2 channels
Channel positions              : Front: L R
Sampling rate                  : 48.0 KHz
Compression mode               : Lossy
Stream size                    : 22.1 MiB (14%)

Скриншоты

Постеры

Соцсети

 

Статистика

Автор: Таточка
Добавлен: 26 янв 2013, 16:33
Размер: 156.32 МБ
Размер: 163 914 509 байт
Сидеров: 39
Личеров: 8
Скачали: 1
Здоровье: 100%
Раздающих: 100%
Скорость скачивания: 0 байт/сек
Скорость раздачи: 0 байт/сек
Последний сидер: 1 месяц 22 дня 15 часов 50 минут 13 секунд назад
Последний личер: 1 месяц 22 дня 15 часов 50 минут 13 секунд назад
Приватный: Нет (DHT включён)
Скачать торрент
Скачать торрент
[ Размер 12.71 КБ / Просмотров 13 ]

Поделиться


Вернуться в Фокусы и трюки