Видео


Сообщение

Видео Павел Клочков.Карта сквозь экран телевизора / Card through TV set by Pavel Klochkov [2011, фокусы и трюки, HDCAMRip, RUS] (Видеоурок)

Сообщение Таточка » 26 янв 2013, 16:37

Павел Клочков.Карта сквозь экран телевизора / card through TV set by Pavel Klochkov
Страна: Россия
Тематика: фокусы и трюки
Тип раздаваемого материала: Видеоурок
Продолжительность: ~20 мин
Год выпуска: 2011
Язык: Русский
Перевод: Не требуется
Язык субтитров: Русский
Описание: Эффект: Произвольно выбранная карта помещается в середину колоды...
Колода бросается в выключенный экран телевизора и одна из карт проходит сквозь экран!!! Зрители тут же могут подойти к телевизору и убедиться что выбранная ими карта действительно находится внутри!!..
Далее фокусник на глазах изумленных зрителей достает карту из экрана голыми руками!!! Трюк можно выполнить в домашних условиях без каких-либо спецпредметов.
Качество: HDRip
Видео: 720х1280 30 кадр/с
Аудио: 2(стерео) 128 кбит/сек
тех.данные
Video
Format : WMV2
Codec ID : WMV2
Bit rate : 4 469 Kbps
Width : 1 280 pixels
Height : 720 pixels
Display aspect ratio : 16:9
Frame rate : 25.000 fps
Bit depth : 8 bits
Bits/(Pixel*Frame) : 0.194
Stream size : 601 MiB (93%)
Audio
Format : WMA
Format version : Version 2
Codec ID : 161
Bit rate : 128 Kbps
Channel(s) : 2 channels
Sampling rate : 44.1 KHz
Bit depth : 16 bits
Stream size : 17.2 MiB (3%)
Скриншоты
[/img]

Постеры

Соцсети

 

Статистика

Автор: Таточка
Добавлен: 26 янв 2013, 16:37
Размер: 645.4 МБ
Размер: 676 746 671 байт
Сидеров: 60
Личеров: 6
Скачали: 2
Здоровье: 100%
Раздающих: 100%
Скорость скачивания: 0 байт/сек
Скорость раздачи: 0 байт/сек
Последний сидер: 1 месяц 27 дней 7 часов 53 минуты 18 секунд назад
Последний личер: 1 месяц 27 дней 7 часов 53 минуты 18 секунд назад
Приватный: Нет (DHT включён)
Скачать торрент
Скачать торрент
[ Размер 13.09 КБ / Просмотров 6 ]

Поделиться


Вернуться в Фокусы и трюки