Видео


Сообщение

Видео Filter by Rick Lax / Сквозные монеты [2012, Coin, Монеты, ENG] (Видеоурок)

Сообщение asder » 26 янв 2013, 16:49

Filter by Rick Lax
Страна: США
Тематика: Coin, Монеты
Тип раздаваемого материала: Видеоурок
Продолжительность: 01:00:18
Год выпуска: 2012
Язык: Английский
Перевод: Отсутствует
Превью:
Описание: Three coins VISUALLY and AUDIBLY penetrate a clear drinking glass. This is the best Coin Through Glass routine on the market - PERIOD.
Imagine dropping three coins into a glass. You remove one, and with a flick of your wrist, it flies straight through the glass. Then you do it again and again. Each phase looks more impressive than the last.
No gimmicks. No extra coins. Totally impromptu. Completely examinable.
Filter was developed with the serious performer in mind. Each phase was designed to chip away at the spectators’ expectations and explanations. And the best part is, you can use almost any glass—even paper cups and coffee mugs! No extra coins. Everything is examinable before AND after the routine.
Over an HOUR of instruction, with multiple handlings and bonus content.
First you’ll learn the basic three-phase glass routine. Then you’ll learn two alternative phases. Then you’ll learn how to apply everything to Starbucks cups and coffee mugs. And lastly, you’ll learn tips on practice and performing - tips that will make all your magic more powerful.
Фокус с монетами и стаканом. Его же сплагиатили Фигасебе под названием "Сквозные монеты".
В видео присутствует небольшой рассинхрон звука. Ранее его уже выкладывали в этом разделе, но было удалено, вроде из-за оформления.
Качество: DVDRip
Формат: MP4
Аудио кодек: AAC
Видео: MPEG4 Video (H264) 640x360 29.97fps 996kbps
Аудио: AAC 44100Hz stereo 127kbps
MediaInfo
Код:
Код: Выделить всё
Общее
Полное имя                               : D:\Video\Filter by Rick Lax.mp4
Формат                                   : MPEG-4
Профиль формата                          : Base Media
Идентификатор кодека                     : isom
Размер файла                             : 487 Мбайт
Продолжительность                        : 1 ч. 0 м.
Режим общего битрейта                    : Переменный
Общий поток                              : 1128 Кбит/сек
Дата кодирования                         : UTC 2012-12-10 20:57:25
Дата пометки                             : UTC 2012-12-10 20:57:25
Видео
Идентификатор                            : 2
Формат                                   : AVC
Формат/Информация                        : Advanced Video Codec
Профиль формата                          : Baseline@L3.0
Параметр CABAC формата                   : Нет
Параметр ReFrames формата                : 1 кадр
Параметр GOP формата                     : M=1, N=10
Идентификатор кодека                     : avc1
Идентификатор кодека/Информация          : Advanced Video Coding
Продолжительность                        : 1 ч. 0 м.
Вид битрейта                             : Переменный
Битрейт                                  : 996 Кбит/сек
Максимальный битрейт                     : 1500 Кбит/сек
Ширина                                   : 640 пикселей
Высота                                   : 360 пикселей
Соотношение сторон                       : 16:9
Режим частоты кадров                     : Постоянный
Частота кадров                           : 29,970 кадров/сек
Цветовое пространство                    : YUV
Субдискретизация насыщенности            : 4:2:0
Битовая глубина                          : 8 бит
Тип развёртки                            : Прогрессивная
Бит/(Пиксели*Кадры)                      : 0.144
Размер потока                            : 430 Мбайт (88%)
Язык                                     : English
Аудио
Идентификатор                            : 1
Формат                                   : AAC
Формат/Информация                        : Advanced Audio Codec
Профиль формата                          : LC
Идентификатор кодека                     : 40
Продолжительность                        : 1 ч. 0 м.
Вид битрейта                             : Постоянный
Битрейт                                  : 127 Кбит/сек
Каналы                                   : 2 канала
Расположение каналов                     : Front: L R
Частота                                  : 44,1 КГц
Метод сжатия                             : С потерями
Размер потока                            : 54,7 Мбайт (11%)
Язык                                     : English

Скриншоты

Постеры

Соцсети

 

Статистика

Автор: asder
Добавлен: 26 янв 2013, 16:49
Размер: 486.65 МБ
Размер: 510 289 326 байт
Сидеров: 53
Личеров: 4
Скачали: 1
Здоровье: 100%
Раздающих: 100%
Скорость скачивания: 0 байт/сек
Скорость раздачи: 0 байт/сек
Последний сидер: 5 дней 4 часа 55 минут 29 секунд назад
Последний личер: 1 месяц 28 дней 17 часов 35 минут 44 секунды назад
Приватный: Нет (DHT включён)
Скачать торрент
Скачать торрент
[ Размер 19.5 КБ / Просмотров 24 ]

Поделиться


Вернуться в Фокусы и трюки