Видео


Сообщение

Видео Bandito by Alex Pandrea [2012, Rubberband, Rings, DVDRip, ENG] (Видеоурок)

Сообщение asder » 26 янв 2013, 16:50

Bandito by Alex Pandrea
Страна: США
Тематика: Фокусы
Тип раздаваемого материала: Видеоурок
Продолжительность: 59:25
Год выпуска: 2012
Язык: Английский
Перевод: Отсутствует
Описание: Fresh from the mind of Alex Pandrea comes Bandito - A visually stunning ring and rubberband routine that uses no gimmicks! First, your finger ring magically ties itself onto a rubberband. You then pluck the ring off the band and visually toss it back on! You take the ring off the band again, and have your spectator squeeze the band and ring together, where they relink under impossible conditions! All you need to get started are an ordinary rubberband and a finger ring!
In addition to the core routine, Alex also teaches several alternate handlings and bonus moves so you can customize the routine to fit your needs! He also tips the work on his amazing linking band effects - Linx, Linx 2.0, and Linx 3.0!
-Totally Impromptu, No Gimmicks
-3 Visually Stunning Phases
-Over 60 Minutes of Instruction
-Over 10 Alternate Handlings and Variations
-3 Bonus Linking Band Effects
Несколько рутин с резинками и кольцами. Никаких гимиков, 100% импровизация.
Превью:
Качество: DVDRip
Формат: rmvb
Если у вас не проигрывается видео - обновите кодеки, например K-Lite Mega Codec Pack
Mediainfo
Код:
Код: Выделить всё
General
Complete name                            : D:\Video\Bandito by Alex Pandrea.rmvb
Format                                   : RealMedia
File size                                : 194 MiB
Duration                                 : 59mn 25s
Overall bit rate                         : 449 Kbps
Video
ID                                       : 1
Format                                   : RealVideo 4
Codec ID                                 : RV40
Codec ID/Info                            : Based on AVC (H.264), Real Player 9
Duration                                 : 59mn 25s
Bit rate                                 : 385 Kbps
Width                                    : 640 pixels
Height                                   : 360 pixels
Display aspect ratio                     : 16:9
Frame rate                               : 29.970 fps
Bits/(Pixel*Frame)                       : 0.056
Stream size                              : 164 MiB (84%)
Audio
ID                                       : 0
Format                                   : Cooker
Codec ID                                 : cook
Codec ID/Info                            : Based on G.722.1, Real Player 6
Duration                                 : 59mn 26s
Bit rate                                 : 64.1 Kbps
Channel(s)                               : 2 channels
Sampling rate                            : 44.1 KHz
Bit depth                                : 16 bits
Stream size                              : 27.2 MiB (14%)

Скриншоты

Другие трюки от Alex Pandrea
Monet | The Brick Pass | LINX | Coin Waltz | TOP

Постеры

Соцсети

 

Статистика

Автор: asder
Добавлен: 26 янв 2013, 16:50
Размер: 194.46 МБ
Размер: 203 901 224 байт
Сидеров: 62
Личеров: 2
Скачали: 2
Здоровье: 100%
Раздающих: 100%
Скорость скачивания: 0 байт/сек
Скорость раздачи: 0 байт/сек
Последний сидер: 1 месяц 27 дней 8 часов 2 минуты 27 секунд назад
Последний личер: 1 месяц 27 дней 8 часов 2 минуты 27 секунд назад
Приватный: Нет (DHT включён)
Скачать торрент
Скачать торрент
[ Размер 15.67 КБ / Просмотров 8 ]

Поделиться


Вернуться в Фокусы и трюки