Видео


Сообщение

Видео Романтика теория / Романтика с фигасебе / Тренинг Романтика [2012, Обучающее видео, RUS] (Видеоурок)

Сообщение asder » 26 янв 2013, 16:51

Романтика теория / Романтика с фигасебе / Тренинг Романтика
Страна: Россия
Тематика: Обучающее видео
Тип раздаваемого материала: Видеоурок
Продолжительность: 02:10:39
Год выпуска: 2012
Язык: Русский
Перевод: Не требуется
Описание: Самое время для выхода в свет нового проекта - целого курса информации о фокусах и романтике. Зачем это тебе нужно? Может быть несколько причин. Например, у тебя есть один очень дорогой для тебя человек, которого ты очень хочешь впечатлить. Может это уже твоя вторая половина, а может ты бы хотел провести лето с этим человеком на другом уровне общения...
А может ты хочешь оторваться в этом году на полную, хочешь с лёгкостью заводить новые интересные знакомства с красивыми людьми и точно знать, что делать дальше...
Доп. информация: Только теория
Формат: MP4
Скриншоты
MediaInfo
part1
General
Complete name : D:\Video\Romantika\figasebe.ru-Romantika-teorija-part1.mp4
Format : MPEG-4
Format profile : Base Media / Version 2
Codec ID : mp42
File size : 140 MiB
Duration : 33mn 18s
Overall bit rate mode : Variable
Overall bit rate : 589 Kbps
Encoded date : UTC 2012-06-05 02:13:04
Tagged date : UTC 2012-06-05 02:13:04
gsst : 0
gstd : 1998146
gssd : B4A7DA8C1HH1339010694773186
gshh : o-o.preferred.svo01s01.v1.nonxt1.c.youtube.com
Video
ID : 1
Format : AVC
Format/Info : Advanced Video Codec
Format profile : Baseline@L3.0
Format settings, CABAC : No
Format settings, ReFrames : 1 frame
Codec ID : avc1
Codec ID/Info : Advanced Video Coding
Duration : 33mn 18s
Bit rate : 490 Kbps
Maximum bit rate : 1 603 Kbps
Width : 640 pixels
Height : 360 pixels
Display aspect ratio : 16:9
Frame rate mode : Constant
Frame rate : 29.970 fps
Color space : YUV
Chroma subsampling : 4:2:0
Bit depth : 8 bits
Scan type : Progressive
Bits/(Pixel*Frame) : 0.071
Stream size : 117 MiB (83%)
Tagged date : UTC 2012-06-05 02:13:05
Audio
ID : 2
Format : AAC
Format/Info : Advanced Audio Codec
Format profile : LC
Codec ID : 40
Duration : 33mn 18s
Bit rate mode : Variable
Bit rate : 96.0 Kbps
Maximum bit rate : 154 Kbps
Channel(s) : 2 channels
Channel positions : Front: L R
Sampling rate : 44.1 KHz
Compression mode : Lossy
Stream size : 22.9 MiB (16%)
Title : IsoMedia File Produced by Google, 5-11-2011
Encoded date : UTC 2012-06-05 02:13:04
Tagged date : UTC 2012-06-05 02:13:05
part2
General
Complete name : D:\Video\Romantika\figasebe.ru-Romantika-teorija-part2.mp4
Format : MPEG-4
Format profile : Base Media / Version 2
Codec ID : mp42
File size : 126 MiB
Duration : 30mn 1s
Overall bit rate mode : Variable
Overall bit rate : 588 Kbps
Encoded date : UTC 2012-06-05 06:27:52
Tagged date : UTC 2012-06-05 06:27:52
gsst : 0
gstd : 1801426
gssd : B4A7DDA68MH1338990841606186
gshh : o-o.preferred.fra07t11.v8.cache4.c.youtube.com
Video
ID : 1
Format : AVC
Format/Info : Advanced Video Codec
Format profile : Baseline@L3.0
Format settings, CABAC : No
Format settings, ReFrames : 1 frame
Format settings, GOP : M=1, N=30
Codec ID : avc1
Codec ID/Info : Advanced Video Coding
Duration : 30mn 1s
Bit rate : 489 Kbps
Maximum bit rate : 1 247 Kbps
Width : 640 pixels
Height : 360 pixels
Display aspect ratio : 16:9
Frame rate mode : Constant
Frame rate : 29.970 fps
Color space : YUV
Chroma subsampling : 4:2:0
Bit depth : 8 bits
Scan type : Progressive
Bits/(Pixel*Frame) : 0.071
Stream size : 105 MiB (83%)
Tagged date : UTC 2012-06-05 06:27:54
Audio
ID : 2
Format : AAC
Format/Info : Advanced Audio Codec
Format profile : LC
Codec ID : 40
Duration : 30mn 1s
Bit rate mode : Variable
Bit rate : 96.0 Kbps
Maximum bit rate : 127 Kbps
Channel(s) : 2 channels
Channel positions : Front: L R
Sampling rate : 44.1 KHz
Compression mode : Lossy
Stream size : 20.6 MiB (16%)
Title : IsoMedia File Produced by Google, 5-11-2011
Encoded date : UTC 2012-06-05 06:27:53
Tagged date : UTC 2012-06-05 06:27:54
part3
General
Complete name : D:\Video\Romantika\figasebe.ru-Romantika-teorija-part3.mp4
Format : MPEG-4
Format profile : Base Media / Version 2
Codec ID : mp42
File size : 110 MiB
Duration : 24mn 31s
Overall bit rate mode : Variable
Overall bit rate : 626 Kbps
Encoded date : UTC 2012-06-05 01:34:54
Tagged date : UTC 2012-06-05 01:34:54
gsst : 0
gstd : 1471981
gssd : B4A7DDA02MH1338990880186894
gshh : o-o.preferred.fra07t11.v2.cache1.c.youtube.com
Video
ID : 1
Format : AVC
Format/Info : Advanced Video Codec
Format profile : Baseline@L3.0
Format settings, CABAC : No
Format settings, ReFrames : 1 frame
Format settings, GOP : M=1, N=30
Codec ID : avc1
Codec ID/Info : Advanced Video Coding
Duration : 24mn 31s
Bit rate : 527 Kbps
Maximum bit rate : 1 268 Kbps
Width : 640 pixels
Height : 360 pixels
Display aspect ratio : 16:9
Frame rate mode : Constant
Frame rate : 29.970 fps
Color space : YUV
Chroma subsampling : 4:2:0
Bit depth : 8 bits
Scan type : Progressive
Bits/(Pixel*Frame) : 0.076
Stream size : 92.5 MiB (84%)
Tagged date : UTC 2012-06-05 01:34:55
Audio
ID : 2
Format : AAC
Format/Info : Advanced Audio Codec
Format profile : LC
Codec ID : 40
Duration : 24mn 31s
Bit rate mode : Variable
Bit rate : 96.0 Kbps
Maximum bit rate : 127 Kbps
Channel(s) : 2 channels
Channel positions : Front: L R
Sampling rate : 44.1 KHz
Compression mode : Lossy
Stream size : 16.8 MiB (15%)
Title : IsoMedia File Produced by Google, 5-11-2011
Encoded date : UTC 2012-06-05 01:34:55
Tagged date : UTC 2012-06-05 01:34:55
part4
General
Complete name : D:\Video\Romantika\figasebe.ru-Romantika-teorija-part4.mp4
Format : MPEG-4
Format profile : Base Media / Version 2
Codec ID : mp42
File size : 164 MiB
Duration : 42mn 48s
Overall bit rate mode : Variable
Overall bit rate : 537 Kbps
Encoded date : UTC 2012-06-05 01:48:03
Tagged date : UTC 2012-06-05 01:48:03
gsst : 0
gstd : 2568846
gssd : B4A7DDA43MH1338990903901995
gshh : o-o.preferred.fra07t11.v3.cache3.c.youtube.com
Video
ID : 1
Format : AVC
Format/Info : Advanced Video Codec
Format profile : Baseline@L3.0
Format settings, CABAC : No
Format settings, ReFrames : 1 frame
Format settings, GOP : M=1, N=30
Codec ID : avc1
Codec ID/Info : Advanced Video Coding
Duration : 42mn 48s
Bit rate : 439 Kbps
Maximum bit rate : 1 502 Kbps
Width : 640 pixels
Height : 360 pixels
Display aspect ratio : 16:9
Frame rate mode : Variable
Frame rate : 29.970 fps
Minimum frame rate : 29.354 fps
Maximum frame rate : 29.970 fps
Color space : YUV
Chroma subsampling : 4:2:0
Bit depth : 8 bits
Scan type : Progressive
Bits/(Pixel*Frame) : 0.064
Stream size : 134 MiB (82%)
Tagged date : UTC 2012-06-05 01:48:05
Audio
ID : 2
Format : AAC
Format/Info : Advanced Audio Codec
Format profile : LC
Codec ID : 40
Duration : 42mn 48s
Bit rate mode : Variable
Bit rate : 96.0 Kbps
Maximum bit rate : 126 Kbps
Channel(s) : 2 channels
Channel positions : Front: L R
Sampling rate : 44.1 KHz
Compression mode : Lossy
Stream size : 29.4 MiB (18%)
Title : IsoMedia File Produced by Google, 5-11-2011
Encoded date : UTC 2012-06-05 01:48:04
Tagged date : UTC 2012-06-05 01:48:05

Постеры

Соцсети

 

Статистика

Автор: asder
Добавлен: 26 янв 2013, 16:51
Размер: 540.74 МБ
Размер: 567 006 304 байт
Сидеров: 413
Личеров: 18
Скачали: 4
Здоровье: 100%
Раздающих: 100%
Скорость скачивания: 0 байт/сек
Скорость раздачи: 0 байт/сек
Последний сидер: 1 месяц 25 дней 10 часов 46 минут 12 секунд назад
Последний личер: 1 месяц 25 дней 10 часов 46 минут 12 секунд назад
Приватный: Нет (DHT включён)
Скачать торрент
Скачать торрент
[ Размер 11.42 КБ / Просмотров 32 ]

Поделиться


Вернуться в Фокусы и трюки