Видео


Сообщение

Видео Versace by Andrei Jikh [2012, Флориш, WEBRip, ENG] (Видеоурок)

Сообщение asder » 26 янв 2013, 16:53

Versace by Andrei Jikh
Страна: USA
Тематика: Кардистри
Тип раздаваемого материала: Видеоурок
Продолжительность: 00:06:31
Год выпуска: 2012
Язык: Английский
Перевод: Отсутствует


Описание: От меня: Оригинальный, в то же время простой флориш.
Привью можно посмотреть здесь: http://www.theory11.com/wire/andrei-jikh/versace/
If simplicity could be displayed, Versace would be its frame. A simple three packet display cut that is as slick as the name it bears.


Качество: WEBRip
Формат: MOV
Видео кодек: H.264
Аудио кодек: AAC
Видео: MPEG-4 Visual, 640 x 360, 16:9, 30.000 fps, 1541 kbps
Аудио: Advanced Audio Codec, 2 ch, 44,1 KHz, CBR, 96 Kbps


Скриншоты
MediaInfo
Общее
Complete name : D:\Torrent\Andrei Jikh - Versace.mov
Format : MPEG-4
Format profile : QuickTime
Codec ID : qt
File size : 76,6 Мбайт
Duration : 6 м. 31 с.
Overall bit rate : 1642 Кбит/сек
Encoded date : UTC 2012-07-26 20:53:35
Tagged date : UTC 2012-07-26 20:53:35
Видео
ID : 2
Format : MPEG-4 Visual
Format profile : Simple@L3
Format settings, BVOP : Нет
Format settings, QPel : Нет
Format settings, GMC : Без точки перехода
Format settings, Matrix : Default (H.263)
Codec ID : 20
Duration : 6 м. 31 с.
Bit rate mode : Постоянный
Bit rate : 1541 Кбит/сек
Width : 640 пикселей
Height : 360 пикселей
Display aspect ratio : 16:9
Frame rate mode : Постоянный
Frame rate : 30,000 кадров/сек
Color space : YUV
Chroma subsampling : 4:2:0
Bit depth : 8 бит
Scan type : Прогрессивная
Compression mode : С потерями
Bits/(Pixel*Frame) : 0.223
Stream size : 71,9 Мбайт (94%)
Writing library : XviD 1.2.1 (UTC 2008-12-04)
Language : English
Аудио
ID : 1
Format : AAC
Format/Info : Advanced Audio Codec
Format profile : LC
Codec ID : 40
Duration : 6 м. 31 с.
Bit rate mode : Постоянный
Bit rate : 96,0 Кбит/сек
Channel(s) : 2 канала
Channel positions : Front: L R
Sampling rate : 44,1 КГц
Compression mode : С потерями
Stream size : 4,48 Мбайт (6%)
Language : English

Постеры

Соцсети

 

Статистика

Автор: asder
Добавлен: 26 янв 2013, 16:53
Размер: 76.61 МБ
Размер: 80 334 436 байт
Сидеров: 66
Личеров: 7
Скачали: 1
Здоровье: 100%
Раздающих: 100%
Скорость скачивания: 0 байт/сек
Скорость раздачи: 0 байт/сек
Последний сидер: 1 месяц 28 дней 17 часов 24 минуты 27 секунд назад
Последний личер: 1 месяц 28 дней 17 часов 24 минуты 27 секунд назад
Приватный: Нет (DHT включён)
Скачать торрент
Скачать торрент
[ Размер 12.45 КБ / Просмотров 9 ]

Поделиться


Вернуться в Фокусы и трюки