Видео


Сообщение

Видео Alex Geiser - Intensity [2011, карты, CAMRip, ENG] (Видеоурок)

Сообщение asder » 26 янв 2013, 16:57

Intensity by Alex Geiser
Страна: сша
Тематика: карты
Тип раздаваемого материала: Видеоурок
Продолжительность: 31мин.
Год выпуска: 2011
Язык: Английский
Перевод: Отсутствует
Описание:
The Blue Crown is proud to offer Intensity, Alex's video debut. This download offers over 30 minutes of detailed instruction, covering 7 sleights that will allow you to make cards appear and change with just a wave of the hand and no extra movements. In addition to the sleights themselves, Alex also covers the psychology and drama required to build tension and turn these moves from simple trickery into moments of wonder. This is straight-up magic, pure and simple.
Дебютное видео Алекса Гейзера. Показано 7 возможностей превращения пары карт в другую пару карт.
Качество: CAMRip
Формат: MOV
Аудио кодек: AAC
Видео: MPEG4 Video (H264) 640x360 29.97fps 1756kbps
Аудио: AAC 44100Hz stereo 128kbps
MediaInfo
Код:
Код: Выделить всё
General
Complete name                  : D:\Video\Alex Geiser - Intensity.mov
Format                         : MPEG-4
Format profile                 : QuickTime
Codec ID                       : qt
File size                      : 431 MiB
Duration                       : 31mn 44s
Overall bit rate               : 1 898 Kbps
Encoded date                   : UTC 2011-07-11 14:32:13
Tagged date                    : UTC 2011-07-11 15:02:53
Writing application            : CoreMediaAuthoring 677, CoreMedia 484.20, i386
Writing library                : Apple QuickTime
Video
ID                             : 2
Format                         : AVC
Format/Info                    : Advanced Video Codec
Format profile                 : Main@L3.0
Format settings, CABAC         : No
Format settings, ReFrames      : 2 frames
Codec ID                       : avc1
Codec ID/Info                  : Advanced Video Coding
Duration                       : 31mn 44s
Bit rate                       : 1 757 Kbps
Width                          : 640 pixels
Height                         : 360 pixels
Display aspect ratio           : 16:9
Frame rate mode                : Constant
Frame rate                     : 29.970 fps
Color space                    : YUV
Chroma subsampling             : 4:2:0
Bit depth                      : 8 bits
Scan type                      : Progressive
Bits/(Pixel*Frame)             : 0.254
Stream size                    : 399 MiB (93%)
Title                          : Core Media Video
Language                       : English
Encoded date                   : UTC 2011-07-11 14:32:13
Tagged date                    : UTC 2011-07-11 15:02:53
Color primaries                : BT.601 NTSC
Transfer characteristics       : BT.709
Matrix coefficients            : BT.601
Audio
ID                             : 1
Format                         : AAC
Format/Info                    : Advanced Audio Codec
Format profile                 : LC
Codec ID                       : 40
Duration                       : 31mn 44s
Source duration                : 31mn 44s
Bit rate mode                  : Constant
Bit rate                       : 128 Kbps
Channel(s)                     : 2 channels
Channel positions              : Front: L R
Sampling rate                  : 44.1 KHz
Compression mode               : Lossy
Stream size                    : 29.1 MiB (7%)
Source stream size             : 29.1 MiB (7%)
Title                          : Core Media Audio
Language                       : English
Encoded date                   : UTC 2011-07-11 14:32:13
Tagged date                    : UTC 2011-07-11 15:02:53

Скриншоты

Постеры

Соцсети

 

Статистика

Автор: asder
Добавлен: 26 янв 2013, 16:57
Размер: 430.89 МБ
Размер: 451 821 592 байт
Сидеров: 22
Личеров: 3
Скачали: 0
Здоровье: 100%
Раздающих: 100%
Скорость скачивания: 0 байт/сек
Скорость раздачи: 0 байт/сек
Последний сидер: 1 месяц 29 дней 6 часов 32 минуты 56 секунд назад
Последний личер: 1 месяц 29 дней 6 часов 32 минуты 56 секунд назад
Приватный: Нет (DHT включён)
Скачать торрент
Скачать торрент
[ Размер 17.31 КБ / Просмотров 6 ]

Поделиться


Вернуться в Фокусы и трюки