Видео


Сообщение

Видео The Prodigy by Alex Geiser [2011, Coin, Монеты, DVDRip, ENG] (Видеоурок)

Сообщение asder » 26 янв 2013, 16:57

The Prodigy by Alex Geiser
Страна: США
Тематика: монеты
Тип раздаваемого материала: Видеоурок
Продолжительность: 1ч. 42мин.
Год выпуска: 2011
Язык: Английский
Перевод: Отсутствует
Описание:
Потрясающий семинар. 4 монеты в двух руках прячутся и появляются. Никаких гиммиков, шеллов, дополнительной маскировки, только руки.
There are no gimmicks, no extra coins, no smoke, and no mirrors. Just 4 coins and 2 hands. The Prodigy involves advanced sleight-of-hand techniques that you can use at any time in any venue. While this is not an easy routine to achieve, once mastered you will have a true gem in your magical arsenal. Every sleight you need is taught in crystal-clear detail from multiple angles. In addition to the mechanics and choreography, Alex teaches you the psychology, drama, and timing that go into the routine. He even covers valuable practice tips and real-world experience so you can learn The Prodigy as easily as possible. Polish your coins and stretch your fingers, it’s time to get to work!
Превью:
Качество: DVDRip
Формат: AVI
Видео кодек: XviD
Аудио кодек: MP3
Видео: Xvid 720x480 30fps 1 258 Kbps
Аудио: MP3 44100Hz stereo 122kbps
MediaInfo
Код:
Код: Выделить всё
General
Complete name                  : D:\Video\Alex Geiser – The Prodigy.avi
Format                         : AVI
Format/Info                    : Audio Video Interleave
Format profile                 : OpenDML
File size                      : 1.00 GiB
Duration                       : 1h 42mn
Overall bit rate mode          : Variable
Overall bit rate               : 1 399 Kbps
Writing application            : MEncoder r33883
Writing library                : MPlayer
Video
ID                             : 0
Format                         : MPEG-4 Visual
Format profile                 : Simple@L3
Format settings, BVOP          : No
Format settings, QPel          : No
Format settings, GMC           : No warppoints
Format settings, Matrix        : Default (H.263)
Codec ID                       : XVID
Codec ID/Hint                  : XviD
Duration                       : 1h 42mn
Bit rate                       : 1 258 Kbps
Width                          : 720 pixels
Height                         : 480 pixels
Display aspect ratio           : 3:2
Frame rate                     : 30.000 fps
Standard                       : NTSC
Color space                    : YUV
Chroma subsampling             : 4:2:0
Bit depth                      : 8 bits
Scan type                      : Progressive
Compression mode               : Lossy
Bits/(Pixel*Frame)             : 0.121
Stream size                    : 924 MiB (90%)
Writing library                : XviD 63
Audio
ID                             : 1
Format                         : MPEG Audio
Format version                 : Version 1
Format profile                 : Layer 3
Mode                           : Joint stereo
Mode extension                 : MS Stereo
Codec ID                       : 55
Codec ID/Hint                  : MP3
Duration                       : 1h 42mn
Bit rate mode                  : Variable
Bit rate                       : 123 Kbps
Channel(s)                     : 2 channels
Sampling rate                  : 44.1 KHz
Compression mode               : Lossy
Stream size                    : 90.1 MiB (9%)
Alignment                      : Aligned on interleaves
Interleave, duration           : 26 ms (0.78 video frame)
Interleave, preload duration   : 230 ms
Writing library                : LAME3.98.4

Скриншоты

Постеры

Соцсети

 

Статистика

Автор: asder
Добавлен: 26 янв 2013, 16:57
Размер: 1 ГБ
Размер: 1 077 236 832 байт
Сидеров: 30
Личеров: 6
Скачали: 2
Здоровье: 100%
Раздающих: 100%
Скорость скачивания: 0 байт/сек
Скорость раздачи: 0 байт/сек
Последний сидер: 1 месяц 27 дней 10 часов 15 минут 4 секунды назад
Последний личер: 1 месяц 27 дней 10 часов 15 минут 4 секунды назад
Приватный: Нет (DHT включён)
Скачать торрент
Скачать торрент
[ Размер 10.52 КБ / Просмотров 14 ]

Поделиться


Вернуться в Фокусы и трюки