Видео


Сообщение

Видео Christian Engblom - Anti-Faro [2012, карты, CAMRip, ENG] (Видеоурок)

Сообщение asder » 26 янв 2013, 16:58

Christian Engblom - Anti-Faro
Страна: сша
Тематика: карты
Тип раздаваемого материала: Видеоурок
Продолжительность: 50 мин.
Год выпуска: 2012
Язык: Английский
Перевод: Отсутствует
Описание:
To perfectly interweave a deck, that is shuffle the cards one-for-one, is by far one of the more challenging feats of our craft. Known as a faro, this form of perfect shuffle has many applications for the magician. However, if one were able to unmix the cards, that is separate them one-for-one, this could provide unparalleled support for new possibilities. The Anti-Faro, a concept devised by Christian Engblom, which accomplishes exactly what its name implies, is real and finally revealed.
The Anti-Faro is a groundbreaking discovery and a singular leap forward into the design and construction of effects utilizing the faro. It is no surprise Christian's method for unshuffling the cards has reached legendary acclaim in recent years. Once thought impossible to achieve, the Anti-Faro has evolved mechanically from a concept to an efficient technique.
Whether you're willing to challenge yourself to learn the Anti-Faro, or are simply curious about its potential, this video offers an in-depth course on everything from the inspiration and concept to the physics behind why and how it works. For those of you incredulous about its practicality, witness it executed perfectly several times over and discover how even a not-so-perfect Anti-Faro can be useful.
"When we first heard about the Anti-Faro we had little understanding of how it could work or if it were even possible. At the time, it was only being talked about and no one had seen it executed perfectly. We were adamant it could be done though and after two years of practice, we only began to experience near complete anti-faros.
Had we known what we know now, we could have become fluent in the Ant-Faro in just a few short months."
Join Christian Englbom, Alex Pandrea and Paul Wilson in this one-hour session on the technique, theory, and applications of the Anti-Faro.
Это восстановление удаленной раздачи от waltergauf , огромная благодарность ему за материал.
Качество: CAMRip
Формат: MP4
Видео: AVC,450 Kbps,640х360 ,16:9,25.000 fps.8 bits
Аудио: AAC,128 Kbps,2 channels,44.1 KHz
MediaInfo
Код:
Код: Выделить всё
General
Complete name                            : D:\Video\Christian Engblom - Anti-Faro\Christian Engblom - Anti-Faro.mp4
Format                                   : MPEG-4
Format profile                           : Base Media
Codec ID                                 : isom
File size                                : 213 MiB
Duration                                 : 50mn 19s
Overall bit rate mode                    : Variable
Overall bit rate                         : 592 Kbps
Writing application                      : Lavf52.40.0
Video
ID                                       : 1
Format                                   : AVC
Format/Info                              : Advanced Video Codec
Format profile                           : Baseline@L3.0
Format settings, CABAC                   : No
Format settings, ReFrames                : 1 frame
Codec ID                                 : avc1
Codec ID/Info                            : Advanced Video Coding
Duration                                 : 50mn 19s
Bit rate                                 : 450 Kbps
Width                                    : 640 pixels
Height                                   : 360 pixels
Display aspect ratio                     : 16:9
Frame rate mode                          : Constant
Frame rate                               : 25.000 fps
Color space                              : YUV
Chroma subsampling                       : 4:2:0
Bit depth                                : 8 bits
Scan type                                : Progressive
Bits/(Pixel*Frame)                       : 0.078
Stream size                              : 165 MiB (78%)
Writing library                          : x264 core 79
Encoding settings                        : cabac=0 / ref=1 / deblock=1:0:0 / analyse=0x1:0x131 / me=tesa / subme=9 / psy=1 / psy_rd=1.0:0.0 / mixed_ref=0 / me_range=24 / chroma_me=1 / trellis=0 / 8x8dct=0 / cqm=0 / deadzone=21,11 / chroma_qp_offset=-2 / threads=24 / nr=0 / decimate=1 / mbaff=0 / constrained_intra=0 / bframes=0 / wpredp=0 / keyint=250 / keyint_min=25 / scenecut=40 / rc_lookahead=40 / rc=cbr / mbtree=1 / bitrate=450 / ratetol=8.9 / qcomp=0.60 / qpmin=10 / qpmax=51 / qpstep=4 / vbv_maxrate=10000 / vbv_bufsize=10000 / ip_ratio=1.41 / aq=1:1.00
Audio
ID                                       : 2
Format                                   : AAC
Format/Info                              : Advanced Audio Codec
Format profile                           : LC
Codec ID                                 : 40
Duration                                 : 50mn 19s
Bit rate mode                            : Variable
Bit rate                                 : 128 Kbps
Channel(s)                               : 2 channels
Channel positions                        : Front: L R
Sampling rate                            : 44.1 KHz
Compression mode                         : Lossy
Stream size                              : 46.0 MiB (22%)

Скриншоты

Постеры

Соцсети

 

Статистика

Автор: asder
Добавлен: 26 янв 2013, 16:58
Размер: 212.96 МБ
Размер: 223 300 944 байт
Сидеров: 50
Личеров: 6
Скачали: 3
Здоровье: 100%
Раздающих: 100%
Скорость скачивания: 0 байт/сек
Скорость раздачи: 0 байт/сек
Последний сидер: 1 месяц 29 дней 6 часов 34 минуты 58 секунд назад
Последний личер: 1 месяц 29 дней 6 часов 34 минуты 58 секунд назад
Приватный: Нет (DHT включён)
Скачать торрент
Скачать торрент
[ Размер 17.13 КБ / Просмотров 13 ]

Поделиться


Вернуться в Фокусы и трюки