Видео


Сообщение

Видео C.A.A.N.D.Y. by Chris Mayhew [2010, фокусы, CAMRip, ENG] (Видеоурок)

Сообщение asder » 26 янв 2013, 16:59

C.A.A.N.D.Y. by Chris Mayhew
Страна: США
Тематика: фокусы
Тип раздаваемого материала: Видеоурок
Продолжительность: 00:29:31
Год выпуска: 2010
Язык: Английский
Перевод: Отсутствует
Описание: Отличный трюк, который реально удивляет и поражает воображение!
Доп. информация: http://www.youtube.com/watch?v=VinoMioEDJk
Качество: CAMRip
Формат: MP4
Видео кодек: XviD
Аудио кодек: AAC
Системные требования: 273 мб
Видео: 1200 Кбит/сек, 960*540 (16:9), 29,970 кадров/сек
Аудио: 88,7 Кбит/сек (128 Кбит/сек), 48,0 КГц, 2 канала
mediainfo
Формат : QuickTime
Формат/Информация : Original Apple specifications
Размер файла : 273 Мбайт
Продолжительность : 29 м.
Общий поток : 1295 Кбит/сек
Программа кодирования : avc2.0.11.1110
Примечание : QuickTime 6.0 or greater
Видео
Идентификатор : 1
Формат : MPEG-4 Visual
Профиль формата : Simple@L1
Параметр BVOP формата : Нет
Параметр QPel формата : Нет
Параметр GMC формата : Без точки перехода
Параметр матрицы формата : Default (H.263)
Идентификатор кодека : 20
Продолжительность : 29 м.
Вид битрейта : Постоянный
Битрейт : 1200 Кбит/сек
Ширина : 960 пикселей
Высота : 540 пикселей
Соотношение сторон : 16:9
Режим частоты кадров : Постоянный
Частота кадров : 29,970 кадров/сек
Цветовое пространство : YUV
Субдискретизация насыщенности : 4:2:0
Битовая глубина : 8 бит
Тип развёртки : Прогрессивная
Метод сжатия : С потерями
Бит/(Пиксели*Кадры) : 0.077
Размер потока : 254 Мбайт (93%)
Библиотека кодирования : avc2.0.11.1110
Язык : English
Аудио
Идентификатор : 2
Формат : AAC
Формат/Информация : Advanced Audio Codec
Профиль формата : LC
Идентификатор кодека : 40
Продолжительность : 29 м.
Вид битрейта : Постоянный
Битрейт : 88,7 Кбит/сек
Номинальный битрейт : 128 Кбит/сек
Каналы : 2 канала
Расположение каналов : Front: L R
Частота : 48,0 КГц
Метод сжатия : С потерями
Размер потока : 18,7 Мбайт (7%)
Язык : English
Скриншоты

Постеры

Соцсети

 

Статистика

Автор: asder
Добавлен: 26 янв 2013, 16:59
Размер: 273.35 МБ
Размер: 286 627 185 байт
Сидеров: 25
Личеров: 7
Скачали: 1
Здоровье: 100%
Раздающих: 100%
Скорость скачивания: 0 байт/сек
Скорость раздачи: 0 байт/сек
Последний сидер: 1 месяц 25 дней 7 часов 14 минут 48 секунд назад
Последний личер: 1 месяц 25 дней 7 часов 14 минут 48 секунд назад
Приватный: Нет (DHT включён)
Скачать торрент
Скачать торрент
[ Размер 11.15 КБ / Просмотров 13 ]

Поделиться


Вернуться в Фокусы и трюки