Видео


Сообщение

Видео Семинар по слейтингу - Чарующие руки / Фигасебе [Обучающий курс, RUS] (Видеоурок)

Сообщение asder » 26 янв 2013, 17:00

Семинар по слейтингу - Чарующие руки / Фигасебе
Страна: Россия
Тематика: Обучающий курс
Тип раздаваемого материала: Видеоурок
Продолжительность: 01:16:26
Язык: Русский
Перевод: Не требуется
Описание: Семинар по слейтингу - чарующие руки от фигасебе...
Формат: AVI
MediaInfo
Общее
Complete name : d:\Video\magic_hends.avi
Format : AVI
Format/Info : Audio Video Interleave
File size : 393 Мбайт
Duration : 1 ч. 16 м.
Overall bit rate : 719 Кбит/сек
Writing library : MPlayer
Видео
ID : 0
Format : MPEG-4 Visual
Format profile : Simple@L1
Format settings, BVOP : Нет
Format settings, QPel : Нет
Format settings, GMC : Без точки перехода
Format settings, Matrix : Default (H.263)
Codec ID : DX50
Codec ID/Hint : DivX 5
Duration : 1 ч. 16 м.
Bit rate : 547 Кбит/сек
Width : 640 пикселей
Height : 480 пикселей
Display aspect ratio : 4:3
Frame rate : 25,000 кадров/сек
Color space : YUV
Chroma subsampling : 4:2:0
Bit depth : 8 бит
Scan type : Чересстрочная
Scan order : Верхнее поле первое
Compression mode : С потерями
Bits/(Pixel*Frame) : 0.071
Stream size : 299 Мбайт (76%)
Writing library : Lavc51.44.0
Аудио
ID : 1
Format : MPEG Audio
Format version : Version 1
Format profile : Layer 3
Mode : Joint stereo
Mode extension : MS Stereo
Codec ID : 55
Codec ID/Hint : MP3
Duration : 1 ч. 16 м.
Bit rate mode : Постоянный
Bit rate : 160 Кбит/сек
Channel(s) : 2 канала
Sampling rate : 44,1 КГц
Compression mode : С потерями
Stream size : 87,5 Мбайт (22%)
Alignment : Соединение по промежуткам
Interleave, duration : 26 мс. (0,65 видеокадр)
Interleave, preload duration : 809 мс.
Writing library : LAME3.97
Скриншоты
" border="0"></a>

Постеры

Соцсети

 

Статистика

Автор: asder
Добавлен: 26 янв 2013, 17:00
Размер: 393.41 МБ
Размер: 412 519 438 байт
Сидеров: 234
Личеров: 19
Скачали: 3
Здоровье: 100%
Раздающих: 100%
Скорость скачивания: 0 байт/сек
Скорость раздачи: 0 байт/сек
Последний сидер: 1 месяц 27 дней 10 часов 17 минут 1 секунду назад
Последний личер: 1 месяц 27 дней 10 часов 17 минут 1 секунду назад
Приватный: Нет (DHT включён)
Скачать торрент
Скачать торрент
[ Размер 15.94 КБ / Просмотров 33 ]

Поделиться


Вернуться в Фокусы и трюки