Видео


Сообщение

Видео Павел Клочков -"Избранное" / Pavel Klochkov [2012, фокусы и трюки, DVD5, RUS/ENG] (Видеоурок)

Сообщение asder » 26 янв 2013, 17:00

Павел Клочков -"Избранное" / Pavel Klochkov
Страна: Россия
Тематика: фокусы и трюки
Тип раздаваемого материала: Видеоурок
Год выпуска: 2012
Язык: Русский + Английский
Перевод: Не требуется
Описание: 3 семинара от Павла Клочкова:
"Threefold effect"Произвольно выбранная карта подписывается с лицевой стороны,помечается с обратной стороны и помещается в середину колоды...После взмаха рукой карта с подписью оказывается наверху лицом вверх!! Еще один взмах и карта исчезает и оказывается в середине колоды!! Третий эффект добивает зрителей- подписанная карта меняет цвет!!!
"The other way" Зритель выбирает совершенно любую карту из стандартной колоды...Карта-предсказание лежит на столе заранее...Эта карта в точности совпадает с выбранной картой зрителем!
"Empty-handed"Манипуляции различными предметами (палкой, сигаретой, картой, бусами)
образ диска
Качество: DVD5
Формат: DVD video
Видео: 720x576
семинары Павла Клочкова
Карта сквозь экран ТВ http://rutracker.org/forum/viewtopic.php?t=3727721
Threefold effect http://rutracker.org/forum/viewtopic.php?t=3818558
Empty-handed(манипуляции) http://rutracker.org/forum/viewtopic.php?t=3875503
The other way http://rutracker.org/forum/viewtopic.php?t=3945373
тех.данные
Format : MPEG-PS
File size : 51.4 MiB
Duration : 1mn 13s
Overall bit rate : 5 907 Kbps
Video
ID : 224 (0xE0)
Format : MPEG Video
Format version : Version 2
Format profile : Main@Main
Format settings, BVOP : Yes
Format settings, Matrix : Default
Format settings, GOP : M=3, N=15
Duration : 1mn 13s
Bit rate mode : Variable
Bit rate : 5 597 Kbps
Nominal bit rate : 9 586 Kbps
Width : 720 pixels
Height : 576 pixels
Display aspect ratio : 4:3
Frame rate : 25.000 fps
Standard : PAL
Color space : YUV
Chroma subsampling : 4:2:0
Bit depth : 8 bits
Scan type : Progressive
Scan order : Top Field First
Compression mode : Lossy
Bits/(Pixel*Frame) : 0.540
Stream size : 48.7 MiB (95%)
Audio
ID : 189 (0xBD)-128 (0x80)
Format : AC-3
Format/Info : Audio Coding 3
Mode extension : CM (complete main)
Muxing mode : DVD-Video
Duration : 1mn 12s
Bit rate mode : Constant
Bit rate : 192 Kbps
Channel(s) : 2 channels
Channel positions : Front: L R
Sampling rate : 48.0 KHz
Bit depth : 16 bits
Compression mode : Lossy
Delay relative to video : -40ms
Stream size : 1.66 MiB (3%)
Menu
Скриншоты

Постеры

Соцсети

 

Статистика

Автор: asder
Добавлен: 26 янв 2013, 17:00
Размер: 2.91 ГБ
Размер: 3 125 942 272 байт
Сидеров: 486
Личеров: 13
Скачали: 2
Здоровье: 100%
Раздающих: 100%
Скорость скачивания: 0 байт/сек
Скорость раздачи: 0 байт/сек
Последний сидер: 1 месяц 25 дней 10 часов 34 минуты 26 секунд назад
Последний личер: 1 месяц 25 дней 10 часов 34 минуты 26 секунд назад
Приватный: Нет (DHT включён)
Скачать торрент
Скачать торрент
[ Размер 16.84 КБ / Просмотров 16 ]

Поделиться


Вернуться в Фокусы и трюки