Видео


Сообщение

Видео Bending the Real by Jay Sankey [2011, Фокусы, ENG] (Видеоурок)

Сообщение asder » 26 янв 2013, 17:00

Bending the Real by Jay Sankey
Страна: США
Тематика: Фокусы
Тип раздаваемого материала: Видеоурок
Продолжительность: 01:15:16
Год выпуска: 2011
Язык: Английский
Перевод: Отсутствует
Подробное описание на английском: http://www.penguinmagic.com/p/2495
Превью:
25 трюков от Jay Sankey с повседневными предметами.
Качество: DVD
Видео: MPEG2 Video 720x480 (4:3) 29.97fps 7500kbps
Аудио: Dolby AC3 48000Hz stereo 192kbps
MediaInfo
Код:
Код: Выделить всё
General
Complete name                            : D:\Video\Bending the Real by Jay Sankey\VIDEO_TS\VTS_01_1.VOB
Format                                   : MPEG-PS
File size                                : 1 024 MiB
Duration                                 : 28mn 33s
Overall bit rate mode                    : Variable
Overall bit rate                         : 5 011 Kbps
Video
ID                                       : 224 (0xE0)
Format                                   : MPEG Video
Format version                           : Version 2
Format profile                           : Main@Main
Format settings, BVOP                    : Yes
Format settings, Matrix                  : Custom
Format settings, GOP                     : M=3, N=15
Duration                                 : 28mn 33s
Bit rate mode                            : Variable
Bit rate                                 : 4 719 Kbps
Maximum bit rate                         : 7 500 Kbps
Width                                    : 720 pixels
Height                                   : 480 pixels
Display aspect ratio                     : 4:3
Frame rate                               : 29.970 fps
Standard                                 : NTSC
Color space                              : YUV
Chroma subsampling                       : 4:2:0
Bit depth                                : 8 bits
Scan type                                : Interlaced
Scan order                               : Bottom Field First
Compression mode                         : Lossy
Bits/(Pixel*Frame)                       : 0.456
Stream size                              : 964 MiB (94%)
Color primaries                          : BT.601 NTSC
Transfer characteristics                 : BT.601
Matrix coefficients                      : BT.601
Audio
ID                                       : 189 (0xBD)-128 (0x80)
Format                                   : AC-3
Format/Info                              : Audio Coding 3
Mode extension                           : CM (complete main)
Format settings, Endianness              : Big
Muxing mode                              : DVD-Video
Duration                                 : 28mn 33s
Bit rate mode                            : Constant
Bit rate                                 : 192 Kbps
Channel(s)                               : 2 channels
Channel positions                        : Front: L R
Sampling rate                            : 48.0 KHz
Bit depth                                : 16 bits
Compression mode                         : Lossy
Stream size                              : 39.2 MiB (4%)

Скриншот меню
Скриншоты

Постеры

Соцсети

 

Статистика

Автор: asder
Добавлен: 26 янв 2013, 17:00
Размер: 2.79 ГБ
Размер: 3 000 709 120 байт
Сидеров: 31
Личеров: 12
Скачали: 4
Здоровье: 100%
Раздающих: 100%
Скорость скачивания: 0 байт/сек
Скорость раздачи: 0 байт/сек
Последний сидер: 1 месяц 25 дней 7 часов 17 минут 31 секунду назад
Последний личер: 1 месяц 25 дней 7 часов 17 минут 31 секунду назад
Приватный: Нет (DHT включён)
Скачать торрент
Скачать торрент
[ Размер 14.91 КБ / Просмотров 11 ]

Поделиться


Вернуться в Фокусы и трюки