Видео


Сообщение

Видео Fortuity by Rick Lax (Theory11.com) [2012, Фокусы, HDRip, ENG] (Видеоурок)

Сообщение asder » 26 янв 2013, 17:01

Fortuity by Rick Lax ( Theory11.com )
Страна: США
Тематика: Фокусы
Тип раздаваемого материала: Видеоурок
Продолжительность: 00:17:35
Год выпуска: 2012
Язык: Английский
Перевод: Отсутствует
Описание: Простой в исполнении и визуально эффектный трюк от Рика Лакса. Зритель выбирает карту, называет любое число; фокусник отсчитывает названное число карт и, о чудо, карта зрителя лежит именно под таким номером в колоде. Очень чистый эффект.
Доп. информация: http://www.youtube.com/watch?v=QT6HErqR-tw
Качество: HDRip
Формат: MP4
Видео кодек: DivX
Аудио кодек: AAC
Системные требования: 368 мб
Видео: 2858 Кбит/сек, 640*360 (16:9), в 29,970 кадров/сек
Аудио: 66,2 Кбит/сек, 48,0 КГц, 2 канала
mediainfo
Видео
Идентификатор : 1
Формат : AVC
Формат/Информация : Advanced Video Codec
Профиль формата : Baseline@L3.0
Параметр CABAC формата : Нет
Параметр ReFrames формата : 3 кадра
Идентификатор кодека : avc1
Идентификатор кодека/Информация : Advanced Video Coding
Продолжительность : 17 м.
Битрейт : 2858 Кбит/сек
Максимальный битрейт : 5421 Кбит/сек
Ширина : 640 пикселей
Высота : 360 пикселей
Соотношение сторон : 16:9
Режим частоты кадров : Постоянный
Частота кадров : 29,970 кадров/сек
Цветовое пространство : YUV
Субдискретизация насыщенности : 4:2:0
Битовая глубина : 8 бит
Тип развёртки : Прогрессивная
Бит/(Пиксели*Кадры) : 0.414
Размер потока : 360 Мбайт (98%)
Библиотека кодирования : x264 core 115 r2013 6fce39a
Настройки программы : cabac=0 / ref=3 / deblock=1:0:0 / analyse=0x1:0x111 / me=umh / subme=8 / psy=1 / psy_rd=1.00:0.00 / mixed_ref=1 / me_range=16 / chroma_me=1 / trellis=1 / 8x8dct=0 / cqm=0 / deadzone=21,11 / fast_pskip=1 / chroma_qp_offset=-2 / threads=48 / sliced_threads=0 / nr=0 / decimate=1 / interlaced=0 / bluray_compat=0 / constrained_intra=0 / bframes=0 / weightp=0 / keyint=250 / keyint_min=25 / scenecut=40 / intra_refresh=0 / rc_lookahead=50 / rc=crf / mbtree=1 / crf=16.0 / qcomp=0.60 / qpmin=0 / qpmax=69 / qpstep=4 / ip_ratio=1.40 / aq=1:1.00
Дата кодирования : UTC 2012-03-28 04:44:54
Дата пометки : UTC 2012-03-28 04:50:45
Аудио
Идентификатор : 2
Формат : AAC
Формат/Информация : Advanced Audio Codec
Профиль формата : LC
Идентификатор кодека : 40
Продолжительность : 17 м.
Вид битрейта : Переменный
Битрейт : 66,2 Кбит/сек
Максимальный битрейт : 80,9 Кбит/сек
Каналы : 2 канала
Расположение каналов : Front: L R
Частота : 48,0 КГц
Метод сжатия : С потерями
Размер потока : 8,18 Мбайт (2%)
Дата кодирования : UTC 2012-03-28 04:50:44
Дата пометки : UTC 2012-03-28 04:50:45
Скриншоты

Постеры

Соцсети

 

Статистика

Автор: asder
Добавлен: 26 янв 2013, 17:01
Размер: 368.18 МБ
Размер: 386 064 598 байт
Сидеров: 61
Личеров: 7
Скачали: 4
Здоровье: 100%
Раздающих: 100%
Скорость скачивания: 0 байт/сек
Скорость раздачи: 0 байт/сек
Последний сидер: 1 месяц 27 дней 10 часов 18 минут 39 секунд назад
Последний личер: 1 месяц 27 дней 10 часов 18 минут 39 секунд назад
Приватный: Нет (DHT включён)
Скачать торрент
Скачать торрент
[ Размер 14.97 КБ / Просмотров 26 ]

Поделиться


Вернуться в Фокусы и трюки