Видео


Сообщение

Видео Celebrity Match by Spidey (Bedros Akkelian) / Знаменитость [2011, Ментализм, ENG] (Видеоурок)

Сообщение asder » 26 янв 2013, 17:02

Celebrity Match by Spidey (Bedros Akkelian) / Знаменитость
Страна: США
Тематика: Ментализм
Тип раздаваемого материала: Видеоурок
Продолжительность: 00:17:07
Год выпуска: 2011
Язык: Английский
Перевод: Отсутствует
Превью:
Описание: The performer places a prediction on the table, he then displays 6 cards with the names of 6 celebrities printed on them. The spectator picks one, and the prediction matches! THAT IS IT!
No switches, no double envelopes, no swamis, no sleight of hand, no spelling numbers. ONE PREDICTION. 100% accurate. No suggestion or subtleties. The spectator can take out the prediction, and you are ALWAYS correct.
Чистое внушение - зритель свободно называет число, после чего Вы ему показываете карточку с этим числом и свое предсказание!
Этот трюк есть на фигасебе под названием "Знаменитость".
Качество: DVDRip
Формат: MP4
Аудио кодек: AAC
Видео MPEG4 Video (H264) 640x360 29.97fps 1468kbps
Аудио: AAC 48000Hz stereo 64kbps
MediaInfo
Код:
Код: Выделить всё
General
Complete name                            : D:\Video\Celebrity Match by Spidey.mp4
Format                                   : MPEG-4
Format profile                           : Base Media
Codec ID                                 : isom
File size                                : 188 MiB
Duration                                 : 17mn 7s
Overall bit rate mode                    : Variable
Overall bit rate                         : 1 536 Kbps
Encoded date                             : UTC 2011-09-18 08:23:15
Tagged date                              : UTC 2011-09-18 08:23:15
Video
ID                                       : 1
Format                                   : AVC
Format/Info                              : Advanced Video Codec
Format profile                           : Baseline@L3.0
Format settings, CABAC                   : No
Format settings, ReFrames                : 3 frames
Codec ID                                 : avc1
Codec ID/Info                            : Advanced Video Coding
Duration                                 : 17mn 7s
Bit rate                                 : 1 469 Kbps
Maximum bit rate                         : 3 641 Kbps
Width                                    : 640 pixels
Height                                   : 360 pixels
Display aspect ratio                     : 16:9
Frame rate mode                          : Constant
Frame rate                               : 29.970 fps
Color space                              : YUV
Chroma subsampling                       : 4:2:0
Bit depth                                : 8 bits
Scan type                                : Progressive
Bits/(Pixel*Frame)                       : 0.213
Stream size                              : 180 MiB (96%)
Writing library                          : x264 core 115 r2013 6fce39a
Encoding settings                        : cabac=0 / ref=3 / deblock=1:0:0 / analyse=0x1:0x111 / me=umh / subme=8 / psy=1 / psy_rd=1.00:0.00 / mixed_ref=1 / me_range=16 / chroma_me=1 / trellis=1 / 8x8dct=0 / cqm=0 / deadzone=21,11 / fast_pskip=1 / chroma_qp_offset=-2 / threads=24 / sliced_threads=0 / nr=0 / decimate=1 / interlaced=0 / bluray_compat=0 / constrained_intra=0 / bframes=0 / weightp=0 / keyint=250 / keyint_min=25 / scenecut=40 / intra_refresh=0 / rc_lookahead=50 / rc=crf / mbtree=1 / crf=16.0 / qcomp=0.60 / qpmin=0 / qpmax=69 / qpstep=4 / ip_ratio=1.40 / aq=1:1.00
Encoded date                             : UTC 2011-09-18 08:23:15
Tagged date                              : UTC 2011-09-18 08:23:16
Audio
ID                                       : 2
Format                                   : AAC
Format/Info                              : Advanced Audio Codec
Format profile                           : LC
Codec ID                                 : 40
Duration                                 : 17mn 7s
Bit rate mode                            : Variable
Bit rate                                 : 64.5 Kbps
Maximum bit rate                         : 89.4 Kbps
Channel(s)                               : 2 channels
Channel positions                        : Front: L R
Sampling rate                            : 48.0 KHz
Compression mode                         : Lossy
Stream size                              : 7.90 MiB (4%)
Encoded date                             : UTC 2011-09-18 08:23:16
Tagged date                              : UTC 2011-09-18 08:23:16

Скриншоты

Постеры

Соцсети

 

Статистика

Автор: asder
Добавлен: 26 янв 2013, 17:02
Размер: 188.21 МБ
Размер: 197 356 755 байт
Сидеров: 38
Личеров: 5
Скачали: 2
Здоровье: 100%
Раздающих: 100%
Скорость скачивания: 0 байт/сек
Скорость раздачи: 0 байт/сек
Последний сидер: 1 месяц 25 дней 7 часов 19 минут 58 секунд назад
Последний личер: 1 месяц 25 дней 7 часов 19 минут 58 секунд назад
Приватный: Нет (DHT включён)
Скачать торрент
Скачать торрент
[ Размер 15.19 КБ / Просмотров 15 ]

Поделиться


Вернуться в Фокусы и трюки