Видео


Сообщение

Видео Toosh by Steve Haynes [2010, Фокусы, ENG] (Видеоурок)

Сообщение asder » 26 янв 2013, 17:02

Toosh by Steve Haynes
Страна: США
Тематика: Фокусы
Тип раздаваемого материала: Видеоурок
Продолжительность: 00:38:27
Год выпуска: 2010
Язык: Английский
Перевод: Отсутствует
Превью:
Описание: The performer draws a couple doodles on two business cards (say an x and a smiley face) and has a spectator sign both. While they are sitting, the performer very clearly and openly shows both signed cards (really only two cards!) and then openly shows the signed smiley face and places it in the spectators and places the x signed card in his pocket.
The performers hands are completely empty as he snaps his finger,then has the spectator turn the card their holding face up which they find is now their signed x card which without a doubt, they saw you place in your pocket! With no hesitation, the performer ask the spectator to stand up and they find they are now sitting on their signed smiley face, that without a doubt was clearly in their hands just moments ago!
Toosh is a test conditions, point blank blow to the spectators mind and because of how open and fair everything is, the spectator can clearly remember every detail with not one single questionable moment!
The Toosh gimmick allows you to perform the most impossible signed card to impossible location, changes and transpositions, in the most open and fair way possible!
Toosh does not use conventional methods, such as double lifts, holding more cards than it appears, false signatures and such, but uses a self contained multi functional gimmick (some quick and easy assembly required) that will last a very long time and can be used with playing cards as well.
Drawings Limited only by your imagination!
INSTANT RESET!
SUPER EASY!
ANYWHERE!
(make the genuine signed cards appear almost anywhere!).
Several applications are covered and you will see how easy, practical and powerful Toosh really is!
Исполнитель рисует пару каракулей на двух визитных карточках (например х и смайлик) и зритель их подписывает. В то время как они сидят, исполнитель открыто показывает подписанные визитки (на самом деле их только две!), а затем открыто показывает подписанную со смайликом и отдает ее зрителю, а подписанную с х кладет в карман. Руки исполнителя полностью пустые, он щелкает пальцами, затем зритель переворачивает свою визитку лицевой стороной вверх и это оказывается карточка с х. Исполнитель просит зрителя встать, и он находит за собой визитку со смайликом, которая несколько секунд назад была в исполнителя.
Качество: DVDRip
Формат: mpg
Video: MPEG2 Video 720x576 (16:9) 25fps 2500kbps
Audio: MPEG Audio 44100Hz stereo 128kbps
MediaInfo
Код:
Код: Выделить всё
General
Complete name                  : D:\Video\Toosh by Steve Haynes.mpg
Format                         : MPEG-PS
File size                      : 761 MiB
Duration                       : 38mn 26s
Overall bit rate               : 2 767 Kbps
Video
ID                             : 224 (0xE0)
Format                         : MPEG Video
Format version                 : Version 2
Format profile                 : Main@High
Format settings, BVOP          : Yes
Format settings, Matrix        : Default
Format settings, GOP           : M=3, N=12
Duration                       : 38mn 26s
Bit rate                       : 2 584 Kbps
Maximum bit rate               : 2 500 Kbps
Width                          : 720 pixels
Height                         : 576 pixels
Display aspect ratio           : 16:9
Frame rate                     : 25.000 fps
Standard                       : PAL
Color space                    : YUV
Chroma subsampling             : 4:2:0
Bit depth                      : 8 bits
Scan type                      : Interlaced
Scan order                     : Bottom Field First
Compression mode               : Lossy
Bits/(Pixel*Frame)             : 0.249
Stream size                    : 711 MiB (93%)
Audio
ID                             : 192 (0xC0)
Format                         : MPEG Audio
Format version                 : Version 1
Format profile                 : Layer 2
Duration                       : 38mn 26s
Bit rate mode                  : Constant
Bit rate                       : 128 Kbps
Channel(s)                     : 2 channels
Sampling rate                  : 44.1 KHz
Compression mode               : Lossy
Stream size                    : 35.2 MiB (5%)

Скриншоты

Постеры

Соцсети

 

Статистика

Автор: asder
Добавлен: 26 янв 2013, 17:02
Размер: 760.96 МБ
Размер: 797 923 328 байт
Сидеров: 41
Личеров: 7
Скачали: 3
Здоровье: 100%
Раздающих: 100%
Скорость скачивания: 0 байт/сек
Скорость раздачи: 0 байт/сек
Последний сидер: 1 месяц 27 дней 8 часов 14 минут 30 секунд назад
Последний личер: 1 месяц 27 дней 8 часов 14 минут 30 секунд назад
Приватный: Нет (DHT включён)
Скачать торрент
Скачать торрент
[ Размер 15.34 КБ / Просмотров 10 ]

Поделиться


Вернуться в Фокусы и трюки