Видео


Сообщение

Видео Touch - Hanson Chien [2010, Резинка, Rubber band, DVDRip] (Видеоурок)

Сообщение asder » 26 янв 2013, 17:03

Touch - Hanson Chien
Страна: США
Тематика: Резинка, rubber band
Тип раздаваемого материала: Видеоурок
Продолжительность: 02:08:06
Год выпуска: 2010
Язык: Китайский
Перевод: Субтитры
Язык субтитров: Английский
Описание: "Touch" shows many brilliant ideas of Rubber Band Magic. All the tricks are impromptu and can be done with borrowed rubber bands. No-talk teaching also makes everything easy to learn in any language.
Touch by Hanson Chien is viewed as the most stunning impromptu rubber band magic, being widely discussed by magic forums in many different countries.
In this DVD, Hanson in the first time tells the secrets of Touch and other 9 rubber band tricks, and 2 routines of his usual procedure of rubber band as bonus. Furthermore, Hanson carefully teaches all the details of settings, and many other interpretations. Every single part of this DVD is so breathtaking!
10 killer rubber band tricks!
- Touch
- ESCAPE
- Ghost Slink
- Ghost Palm
- Ghost Finger
- Crazy Hanson's Handcuffs
- Crazy Magician's Handcuffs
- Infinity Linkage
- Missing Linkage
- Flash Band
Plus 2 routines:
- Teleport
- Liquid
• Fully Impromptu.
• No Gimmicks - can use borrowed bands.
• Silent, crystal clear instruction - Learn in any language.
10 трюков, 2 рутины с резинками.
Превью :
Качество: DVDRip
Формат: FLV
Аудиокодек: MP3
MediaInfo
Код:
Код: Выделить всё
General
Complete name                            : D:\Video\Touch - Hanson Chien.flv
Format                                   : Flash Video
File size                                : 624 MiB
Duration                                 : 2h 8mn
Overall bit rate                         : 662 Kbps
Video
Format                                   : Sorenson Spark
Codec ID                                 : 2
Duration                                 : 2h 8mn
Bit rate                                 : 499 Kbps
Width                                    : 512 pixels
Height                                   : 384 pixels
Display aspect ratio                     : 4:3
Frame rate mode                          : Constant
Frame rate                               : 15.000 fps
Bit depth                                : 8 bits
Bits/(Pixel*Frame)                       : 0.169
Stream size                              : 457 MiB (73%)
Audio
Format                                   : MPEG Audio
Format version                           : Version 1
Format profile                           : Layer 3
Mode                                     : Joint stereo
Mode extension                           : MS Stereo
Codec ID                                 : 2
Codec ID/Hint                            : MP3
Duration                                 : 2h 8mn
Bit rate mode                            : Constant
Bit rate                                 : 128 Kbps
Channel(s)                               : 2 channels
Sampling rate                            : 44.1 KHz
Compression mode                         : Lossy
Stream size                              : 117 MiB (19%)
Writing library                          : LAME3.98.2

Скриншоты

Постеры

Соцсети

 

Статистика

Автор: asder
Добавлен: 26 янв 2013, 17:03
Размер: 624.06 МБ
Размер: 654 372 468 байт
Сидеров: 197
Личеров: 18
Скачали: 14
Здоровье: 100%
Раздающих: 100%
Скорость скачивания: 0 байт/сек
Скорость раздачи: 0 байт/сек
Последний сидер: 1 месяц 29 дней 6 часов 31 минуту 44 секунды назад
Последний личер: 1 месяц 29 дней 6 часов 31 минуту 44 секунды назад
Приватный: Нет (DHT включён)
Скачать торрент
Скачать торрент
[ Размер 12.68 КБ / Просмотров 14 ]

Поделиться


Вернуться в Фокусы и трюки