Видео


Сообщение

Видео Regenertaion by blake vogt / Regenertaion by blake vogt [2012, Фокусы, DVDRip, ENG] (Видеоурок)

Сообщение Tutorial » 26 фев 2013, 22:49

Regeneration by blake vogt / Regeneration by blake vogt[br][/br]Страна: Америка
Тематика: Фокусы
Тип раздаваемого материала: Видеоурок
Продолжительность: 00:22:14
Год выпуска: 2012[br][/br]Язык: Английский
Перевод: Отсутствует[br][/br]Описание: This is your SECRET weapon of MASS deception.
This is something you will save for that special moment - that pivotal instant when you need to BLOW THEM AWAY. Regeneration is your LAST resort to leave them speechless. An earth shattering effect from the working repertoire of Cyril Takayama, Justin Willman, Dan White, and now... your own.
Восстановление карты, гиммик можно сделать самому =)[br][/br]Качество: DVDRip
Формат: MP4
Видео кодек: H.264
Аудио кодек: AAC
Системные требования: главное чтобы читал mp4
Видео: Кодек: H264 - MPEG-4 AVC (part 10) (avc1) Разрешение: 640x360 Частота кадров: 30
Аудио: Кодек: MPEG AAC Audio (mp4a) Каналы: стерео Частота дискретизации: 44100 Гц
Скриншоты
mediainfo
General
Complete name : C:\Users\0\Downloads\regenration by blake vogt.mp4
Format : MPEG-4
Format profile : Base Media / Version 2
Codec ID : mp42
File size : 78.2 MiB
Duration : 22mn 14s
Overall bit rate mode : Variable
Overall bit rate : 492 Kbps
Encoded date : UTC 2013-01-25 21:55:38
Tagged date : UTC 2013-01-25 21:55:38
gsst : 0
gstd : 1334705
gssd : B2EE8CF46MM1359269330624951
gshh : r3---sn-hxb54vo-304e.c.youtube.com[br][/br]Video
ID : 1
Format : AVC
Format/Info : Advanced Video Codec
Format profile : Baseline@L3.0
Format settings, CABAC : No
Format settings, ReFrames : 1 frame
Codec ID : avc1
Codec ID/Info : Advanced Video Coding
Duration : 22mn 14s
Bit rate : 393 Kbps
Maximum bit rate : 1 321 Kbps
Width : 640 pixels
Height : 360 pixels
Display aspect ratio : 16:9
Frame rate mode : Constant
Frame rate : 30.000 fps
Color space : YUV
Chroma subsampling : 4:2:0
Bit depth : 8 bits
Scan type : Progressive
Bits/(Pixel*Frame) : 0.057
Stream size : 62.5 MiB (80%)
Tagged date : UTC 2013-01-25 21:55:39[br][/br]Audio
ID : 2
Format : AAC
Format/Info : Advanced Audio Codec
Format profile : LC
Codec ID : 40
Duration : 22mn 14s
Bit rate mode : Variable
Bit rate : 96.0 Kbps
Maximum bit rate : 104 Kbps
Channel(s) : 2 channels
Channel positions : Front: L R
Sampling rate : 44.1 KHz
Compression mode : Lossy
Stream size : 15.3 MiB (20%)
Title : IsoMedia File Produced by Google, 5-11-2011
Encoded date : UTC 2013-01-25 21:55:39
Tagged date : UTC 2013-01-25 21:55:39

Постеры

Соцсети

 

Статистика

Автор: Tutorial
Добавлен: 26 фев 2013, 22:49
Размер: 78.19 МБ
Размер: 81 993 159 байт
Сидеров: 27
Личеров: 10
Скачали: 4
Здоровье: 100%
Раздающих: 100%
Скорость скачивания: 0 байт/сек
Скорость раздачи: 0 байт/сек
Последний сидер: 1 месяц 29 дней 6 часов 23 минуты 12 секунд назад
Последний личер: 1 месяц 29 дней 6 часов 23 минуты 12 секунд назад
Приватный: Нет (DHT включён)
Скачать торрент
Скачать торрент
[ Размер 12.81 КБ / Просмотров 23 ]

Поделиться


Вернуться в Фокусы и трюки