Видео


Сообщение

Видео Robin De - LGDM Control / Robin De - LGDM Control [2012, Контроль карты, DVDRip, ENG] (Видеоурок)

Сообщение Tutorial » 26 фев 2013, 22:50

Robin De - LGDM Control / Robin De - LGDM Control[br][/br]Страна: США
Тематика: Контроль карты
Тип раздаваемого материала: Видеоурок
Продолжительность: 00:15:22
Год выпуска: 2012[br][/br]Язык: Английский
Перевод: Отсутствует[br][/br]Описание: A control that is SIMPLE and DIRECT. The possibilities are LIMITLESS! A VERY PRACTICAL MOVE! Can be applied in almost any trick you want. Inspired by Ricky Smith's Cherry Control. This is the LGDM | Control.
Video Contains: *Clear instructional video - multiple angles *Key points explained clearly *Clear glass used for better understanding
Multiple Variations such as: *controlling MULTIPLE cards to the top, a SANDWICH effect and MORE will be released this January![br][/br]Контроль карты из середины колоды наверх.Мне показался неинтересным.[br][/br]Доп. информация: Ничо не знаю,там где Видео\Аудио - это данные из Media Player Classic
То,что ниже под спойлером, это из КМ плейера. Кому надо,те и без данных скачают
General
Complete name : C:\Documents and Settings\Admin\Мои документы\Downloads\Robin De - LGDM Control\Robin De - LGDM Control.mp4
Format : MPEG-4
Format profile : Base Media
Codec ID : isom
File size : 95.6 MiB
Duration : 15mn 22s
Overall bit rate mode : Variable
Overall bit rate : 870 Kbps
Encoded date : UTC 2011-12-08 15:40:17
Tagged date : UTC 2011-12-08 15:40:17
Video #1
ID : 1
Format : AVC
Format/Info : Advanced Video Codec
Format profile : Baseline@L3.0
Format settings, CABAC : No
Format settings, ReFrames : 3 frames
Codec ID : avc1
Codec ID/Info : Advanced Video Coding
Duration : 15mn 22s
Bit rate : 796 Kbps
Maximum bit rate : 1 605 Kbps
Width : 480 pixels
Height : 360 pixels
Display aspect ratio : 4:3
Frame rate mode : Constant
Frame rate : 25.000 fps
Color space : YUV
Chroma subsampling : 4:2:0
Bit depth : 8 bits
Scan type : Progressive
Bits/(Pixel*Frame) : 0.184
Stream size : 87.5 MiB (91%)
Writing library : x264 core 115 r2013 6fce39a
Audio #2
ID : 2
Format : AAC
Format/Info : Advanced Audio Codec
Format profile : LC
Codec ID : 40
Duration : 15mn 21s
Bit rate mode : Variable
Bit rate : 72.0 Kbps
Maximum bit rate : 120 Kbps
Channel(s) : 2 channels
Channel positions : Front: L R
Sampling rate : 44.1 KHz
Compression mode : Lossy
Stream size : 7.87 MiB (8%)
Encoded date : UTC 2011-12-08 15:40:17
Tagged date : UTC 2011-12-08 15:40:17
Качество: DVDRip
Формат: MP4
Видео: MPEG4 Video (H264) 480x360 25.00fps 796 Kbps
Аудио: AAC 44100Hz stereo 71kbps 2ch
Скриншоты

Постеры

Соцсети

 

Статистика

Автор: Tutorial
Добавлен: 26 фев 2013, 22:50
Размер: 95.6 МБ
Размер: 100 242 225 байт
Сидеров: 22
Личеров: 3
Скачали: 2
Здоровье: 100%
Раздающих: 100%
Скорость скачивания: 0 байт/сек
Скорость раздачи: 0 байт/сек
Последний сидер: 1 месяц 29 дней 6 часов 32 минуты 32 секунды назад
Последний личер: 1 месяц 29 дней 6 часов 32 минуты 32 секунды назад
Приватный: Нет (DHT включён)
Скачать торрент
Скачать торрент
[ Размер 15.42 КБ / Просмотров 10 ]

Поделиться


Вернуться в Фокусы и трюки