Видео


Сообщение

Видео ФигАсебе - обучение фокусам [2012 г., ОБучение, DVDRiр, RUS] (Видеоурок)

Сообщение Tutorial » 26 фев 2013, 22:51

Год выпуска: 2012
Страна: Россия
Жанр: ОБучение
Продолжительность: 15:41:24
Тип раздаваемого материала: Видеоурок
Язык: Русский
Перевод: Не требуется
Язык субтитров: нет

В ролях: Денис Чертовский, Виталик "Негодяй" Кутмин
Описание: 110 фокусов с фигасебе
MediaInfo
Код:
Код: Выделить всё
Format                                   : MPEG-4
Format profile                           : Base Media
Codec ID                                 : isom
File size                                : 116 MiB
Duration                                 : 9mn 11s
Overall bit rate mode                    : Variable
Overall bit rate                         : 1 759 Kbps
Writing application                      : Lavf52.94.0[br][/br]Video
ID                                       : 1
Format                                   : AVC
Format/Info                              : Advanced Video Codec
Format profile                           : Main@L3.0
Format settings, CABAC                   : Yes
Format settings, ReFrames                : 2 frames
Codec ID                                 : avc1
Codec ID/Info                            : Advanced Video Coding
Duration                                 : 9mn 11s
Bit rate                                 : 1 632 Kbps
Width                                    : 640 pixels
Height                                   : 480 pixels
Display aspect ratio                     : 4:3
Frame rate mode                          : Constant
Frame rate                               : 25.000 fps
Color space                              : YUV
Chroma subsampling                       : 4:2:0
Bit depth                                : 8 bits
Scan type                                : Progressive
Bits/(Pixel*Frame)                       : 0.213
Stream size                              : 105 MiB (91%)
Writing library                          : x264 core 112 r1834 a51816a
Encoding settings                        : cabac=1 / ref=1 / deblock=1:0:0 / analyse=0x1:0 / me=dia / subme=2 / psy=1 / psy_rd=0.00:0.00 / mixed_ref=0 / me_range=16 / chroma_me=1 / trellis=0 / 8x8dct=0 / cqm=0 / deadzone=21,11 / fast_pskip=1 / chroma_qp_offset=0 / threads=4 / sliced_threads=0 / nr=0 / decimate=1 / interlaced=0 / constrained_intra=0 / bframes=3 / b_pyramid=0 / b_adapt=1 / b_bias=0 / direct=3 / weightb=0 / open_gop=0 / weightp=2 / keyint=250 / keyint_min=25 / scenecut=40 / intra_refresh=0 / rc_lookahead=40 / rc=abr / mbtree=1 / bitrate=1632 / ratetol=1.0 / qcomp=0.60 / qpmin=10 / qpmax=51 / qpstep=4 / ip_ratio=1.41 / aq=1:1.00[br][/br]Audio
ID                                       : 2
Format                                   : AAC
Format/Info                              : Advanced Audio Codec
Format profile                           : LC
Codec ID                                 : 40
Duration                                 : 9mn 10s
Bit rate mode                            : Variable
Bit rate                                 : 151 Kbps
Channel(s)                               : 2 channels
Channel positions                        : Front: L R
Sampling rate                            : 44.1 KHz
Compression mode                         : Lossy
Stream size                              : 9.93 MiB (9%)

Качество: DVDRip
Формат: MP4
Видео кодек: DivX
Аудио кодек: AAC
Видео: MPEG4 Video (H264) 480x360 29.97fps 1007kbps
Аудио: AAC 44100Hz stereo 95kbps
Скриншоты
Пример
Посмотрел? Хочешь научиться? качай
Онлайн видеоОнлайн видеоОнлайн видео

Постеры

Соцсети

 

Статистика

Автор: Tutorial
Добавлен: 26 фев 2013, 22:51
Размер: 7.16 ГБ
Размер: 7 690 829 996 байт
Сидеров: 567
Личеров: 54
Скачали: 11
Здоровье: 100%
Раздающих: 100%
Изменил: Stepan (03 мар 2013, 23:36)
Скорость скачивания: 0 байт/сек
Скорость раздачи: 0 байт/сек
Последний сидер: 9 дней 2 часа 46 минут 23 секунды назад
Последний личер: 10 дней 19 часов 17 минут 7 секунд назад
Приватный: Нет (DHT включён)
Скачать торрент
Скачать торрент
[ Размер 26.09 КБ / Просмотров 108 ]

Поделиться


Вернуться в Фокусы и трюки