Видео


Сообщение

Видео Manhattan Opener by Michael Feldman [2012, Карты, ENG] (Видеоурок)

Сообщение Tutorial » 26 фев 2013, 22:53

Manhattan Opener by Michael Feldman[br][/br]Страна: США
Тематика: Карты
Тип раздаваемого материала: Видеоурок
Продолжительность: 00:28:33
Год выпуска: 2012[br][/br]Язык: Английский
Перевод: Отсутствует[br][/br]Подробное описание на английском:
С синей колоды выбирают одну карту, возвращают ее обратно в колоду и карта становится красной. Ее откладывают в сторону, зритель выбирает из колоды новую карту, запоминает и возвращает ее обратно. После этого карта оказывается на месте отложенной ранее.
Превью: [br][/br]Качество: CAMRip
Формат: rmvb
Видео: RealVideo 4 640x360 29.97fps 446kbps
Аудио: RealAudio COOK 44100Hz stereo
MediaInfo
Код:
Код: Выделить всё
General
Complete name                  : D:\Video\Manhattan Opener by Michael Feldman.rmvb
Format                         : RealMedia
File size                      : 106 MiB
Duration                       : 28mn 33s
Overall bit rate               : 511 Kbps[br][/br]Video
ID                             : 1
Format                         : RealVideo 4
Codec ID                       : RV40
Codec ID/Info                  : Based on AVC (H.264), Real Player 9
Duration                       : 28mn 32s
Bit rate                       : 447 Kbps
Width                          : 640 pixels
Height                         : 360 pixels
Display aspect ratio           : 16:9
Frame rate                     : 29.970 fps
Bits/(Pixel*Frame)             : 0.065
Stream size                    : 91.2 MiB (86%)[br][/br]Audio
ID                             : 0
Format                         : Cooker
Codec ID                       : cook
Codec ID/Info                  : Based on G.722.1, Real Player 6
Duration                       : 28mn 34s
Bit rate                       : 64.1 Kbps
Channel(s)                     : 2 channels
Sampling rate                  : 44.1 KHz
Bit depth                      : 16 bits
Stream size                    : 13.1 MiB (12%)

Скриншоты

Постеры

Соцсети

 

Статистика

Автор: Tutorial
Добавлен: 26 фев 2013, 22:53
Размер: 106.23 МБ
Размер: 111 394 196 байт
Сидеров: 53
Личеров: 7
Скачали: 1
Здоровье: 100%
Раздающих: 100%
Скорость скачивания: 0 байт/сек
Скорость раздачи: 0 байт/сек
Последний сидер: 1 месяц 29 дней 6 часов 35 минут 46 секунд назад
Последний личер: 1 месяц 29 дней 6 часов 35 минут 46 секунд назад
Приватный: Нет (DHT включён)
Скачать торрент
Скачать торрент
[ Размер 17.09 КБ / Просмотров 16 ]

Поделиться


Вернуться в Фокусы и трюки