Видео


Сообщение

Видео Sleeping Queen by Dan Hauss [2010, Карточные фокусы, DVDRip, ENG] (Видеоурок)

Сообщение Tutorial » 26 фев 2013, 22:53

Sleeping Queen by Dan Hauss[br][/br]Страна: США
Тематика: Карточные фокусы
Тип раздаваемого материала: Видеоурок
Продолжительность: 00:16:45
Год выпуска: 2010[br][/br]Язык: Английский
Перевод: Отсутствует[br][/br]Описание: Фокусник демонстрирует зрителям пиковую даму, они могут её тщательно изучить. Затем, он закрывает даму рукой и просит представить её спящей. Фокусник убирает руку и глаза дамы оказываются закрыты! В финале, глаза дамы постепенно открываются.
- Не нужна спец. напечатанная карта
- Зритель может держать карту
- В конце карту можно отдать в качестве сувенира[br][/br]Доп. информация: Превью и описание на английском[br][/br]Предупреждаю: качество видео отвратительное, но лучше я не видел.[br][/br]Качество: CAMRip
Формат: WMV
Видео кодек: VC-1
Аудио кодек: WMA
Видео: VC-1, 320x240, (4:3), 786kbps, 25fps
Аудио: WMA, 64kbps, 44,1kHz, 2ch
Скриншоты


MediaInfo
Код:
Код: Выделить всё
General
Complete name                            : C:\Users\alex\Downloads\Раздачи\Sleeping Queen\Sleeping Queen.wmv
Format                                   : Windows Media
File size                                : 93.2 MiB
Duration                                 : 16mn 45s
Overall bit rate mode                    : Constant
Overall bit rate                         : 778 Kbps
Maximum Overall bit rate                 : 861 Kbps
Encoded date                             : UTC 2008-08-14 21:22:18.236[br][/br]Video
ID                                       : 2
Format                                   : VC-1
Format profile                           : MP@LL
Codec ID                                 : WMV3
Codec ID/Info                            : Windows Media Video 9
Codec ID/Hint                            : WMV3
Description of the codec                 : Windows Media Video 9
Duration                                 : 16mn 45s
Bit rate mode                            : Constant
Bit rate                                 : 786 Kbps
Width                                    : 320 pixels
Height                                   : 240 pixels
Display aspect ratio                     : 4:3
Frame rate                               : 15.000 fps
Nominal frame rate                       : 25.000 fps
Bit depth                                : 8 bits
Scan type                                : Progressive
Compression mode                         : Lossy
Bits/(Pixel*Frame)                       : 0.683
Stream size                              : 94.2 MiB
Language                                 : English (US)[br][/br]Audio
ID                                       : 1
Format                                   : WMA
Format version                           : Version 2
Codec ID                                 : 161
Codec ID/Info                            : Windows Media Audio
Description of the codec                 : Windows Media Audio 9.2 -  64 kbps, 44 kHz, stereo (A/V) 1-pass CBR
Duration                                 : 16mn 45s
Bit rate mode                            : Constant
Bit rate                                 : 64.0 Kbps
Channel(s)                               : 2 channels
Sampling rate                            : 44.1 KHz
Bit depth                                : 16 bits
Stream size                              : 7.67 MiB (8%)
Language                                 : English (US)

Постеры

Соцсети

 

Статистика

Автор: Tutorial
Добавлен: 26 фев 2013, 22:53
Размер: 93.2 МБ
Размер: 97 731 429 байт
Сидеров: 22
Личеров: 5
Скачали: 0
Здоровье: 100%
Раздающих: 100%
Скорость скачивания: 0 байт/сек
Скорость раздачи: 0 байт/сек
Последний сидер: 1 месяц 27 дней 7 часов 59 минут 49 секунд назад
Последний личер: 1 месяц 27 дней 7 часов 59 минут 49 секунд назад
Приватный: Нет (DHT включён)
Скачать торрент
Скачать торрент
[ Размер 15.14 КБ / Просмотров 11 ]

Поделиться


Вернуться в Фокусы и трюки