Видео


Сообщение

Видео Tearify Newspaper Mindreading by Nathan Kranzo [2011, Ментализм, DVDRip, ENG] (Видеоурок)

Сообщение Tutorial » 26 фев 2013, 22:54

Tearify Newspaper Mindreading by Nathan Kranzo[br][/br]Страна: США
Тематика: Ментализм
Тип раздаваемого материала: Видеоурок
Продолжительность: 00:30:18
Год выпуска: 2011[br][/br]Язык: Английский
Перевод: Отсутствует[br][/br]Описание: Фокусник разрывает газету на сотню кусочков, зритель выбирает один. Затем запоминает одно слово с любой стороны гаезты. Фокусник показывает своё предсказание, и оно оказывается верным.
- Никаких гиммиков
- Любая газета
- На подготовку нужно меньше минуты
- Бонус: полностью импровизированная вариация трюка[br][/br]Доп. информация: Превью и описание на английском[br][/br]Качество: DVDRip
Формат: AVI
Видео кодек: DivX
Аудио кодек: MP3
Видео: DivX, 720x480, (16:9), 3276kbps, 29,970fps
Аудио: MP3, 256kbps, 44,1kHz, 2ch
Скриншоты


MediaInfo
Код:
Код: Выделить всё
Общее
Полное имя                               : C:\Users\msi\Downloads\Раздачи\Tearify.avi
Формат                                   : AVI
Формат/Информация                        : Audio Video Interleave
Размер файла                             : 768 Мбайт
Продолжительность                        : 30 м.
Общий поток                              : 3545 Кбит/сек
Программа кодирования                    : Lavf52.93.0[br][/br]Видео
Идентификатор                            : 0
Формат                                   : MPEG-4 Visual
Профиль формата                          : Simple@L1
Параметр BVOP формата                    : Нет
Параметр QPel формата                    : Нет
Параметр GMC формата                     : Без точки перехода
Параметр матрицы формата                 : Default (H.263)
Идентификатор кодека                     : DIVX
Идентификатор кодека/Информация          : Project Mayo
Идентификатор кодека/Подсказка           : DivX 4
Продолжительность                        : 30 м.
Битрейт                                  : 3276 Кбит/сек
Ширина                                   : 720 пикселей
Высота                                   : 480 пикселей
Соотношение сторон                       : 16:9
Частота кадров                           : 29,970 кадров/сек
Стандарт вещания                         : NTSC
Цветовое пространство                    : YUV
Субдискретизация насыщенности            : 4:2:0
Битовая глубина                          : 8 бит
Тип развёртки                            : Прогрессивная
Метод сжатия                             : С потерями
Бит/(Пиксели*Кадры)                      : 0.316
Размер потока                            : 710 Мбайт (92%)
Библиотека кодирования                   : Lavc52.108.0[br][/br]Аудио
Идентификатор                            : 1
Формат                                   : MPEG Audio
Версия формата                           : Version 1
Профиль формата                          : Layer 3
Режим                                    : Joint stereo
Расширение режима                        : MS Stereo
Идентификатор кодека                     : 55
Идентификатор кодека/Подсказка           : MP3
Продолжительность                        : 30 м.
Вид битрейта                             : Постоянный
Битрейт                                  : 256 Кбит/сек
Каналы                                   : 2 канала
Частота                                  : 44,1 КГц
Метод сжатия                             : С потерями
Размер потока                            : 55,5 Мбайт (7%)
Выравнивание                             : Соединение по промежуткам
Продолжительность промежутка             : 26  мс. (0,78 видеокадр)
Библиотека кодирования                   : LAME3.98.4

Постеры

Соцсети

 

Статистика

Автор: Tutorial
Добавлен: 26 фев 2013, 22:54
Размер: 768.42 МБ
Размер: 805 745 876 байт
Сидеров: 260
Личеров: 4
Скачали: 4
Здоровье: 100%
Раздающих: 100%
Скорость скачивания: 0 байт/сек
Скорость раздачи: 0 байт/сек
Последний сидер: 1 месяц 27 дней 8 часов 11 минут 46 секунд назад
Последний личер: 1 месяц 27 дней 8 часов 11 минут 46 секунд назад
Приватный: Нет (DHT включён)
Скачать торрент
Скачать торрент
[ Размер 15.59 КБ / Просмотров 13 ]

Поделиться


Вернуться в Фокусы и трюки