Видео


Сообщение

Видео No Smoking Zone by Nathan Kranzo [2011, Фокусы, DVDRip, ENG] (Видеоурок)

Сообщение Tutorial » 26 фев 2013, 22:54

No Smoking Zone by Nathan Kranzo[br][/br]Страна: США
Тематика: Фокусы
Тип раздаваемого материала: Видеоурок
Продолжительность: 00:14:57
Год выпуска: 2011[br][/br]Язык: Английский
Перевод: Отсутствует[br][/br]Описание: Фокусник держит сигарету во рту, затем поворачивается вокруг своей оси и сигарета превращается в упаковку жевачки (или просто исчезает).[br][/br]Доп. информация: Превью и описание на английском[br][/br]Качество: DVDRip
Формат: AVI
Видео кодек: XviD
Аудио кодек: MP3
Видео: XviD, 720x480, (3:2), 2018kbps, 29,970
Аудио: MP3, 256kbps, 44,1kHz, 2ch
Скриншоты


MediaInfo
Код:
Код: Выделить всё
Общее
Полное имя                               : C:\Users\msi\Downloads\Раздачи\No Smoking Zone.avi
Формат                                   : AVI
Формат/Информация                        : Audio Video Interleave
Размер файла                             : 245 Мбайт
Продолжительность                        : 14 м.
Общий поток                              : 2287 Кбит/сек
Программа кодирования                    : Lavf52.93.0[br][/br]Видео
Идентификатор                            : 0
Формат                                   : xvid
Идентификатор кодека                     : xvid
Продолжительность                        : 14 м.
Битрейт                                  : 2018 Кбит/сек
Ширина                                   : 720 пикселей
Высота                                   : 480 пикселей
Соотношение сторон                       : 3:2
Частота кадров                           : 29,970 кадров/сек
Стандарт вещания                         : NTSC
Бит/(Пиксели*Кадры)                      : 0.195
Размер потока                            : 216 Мбайт (88%)[br][/br]Аудио
Идентификатор                            : 1
Формат                                   : MPEG Audio
Версия формата                           : Version 1
Профиль формата                          : Layer 3
Режим                                    : Joint stereo
Расширение режима                        : MS Stereo
Идентификатор кодека                     : 55
Идентификатор кодека/Подсказка           : MP3
Продолжительность                        : 14 м.
Вид битрейта                             : Постоянный
Битрейт                                  : 256 Кбит/сек
Каналы                                   : 2 канала
Частота                                  : 44,1 КГц
Метод сжатия                             : С потерями
Размер потока                            : 27,5 Мбайт (11%)
Выравнивание                             : Соединение по промежуткам
Продолжительность промежутка             : 26  мс. (0,78 видеокадр)
Библиотека кодирования                   : LAME3.98.4

Постеры

Соцсети

 

Статистика

Автор: Tutorial
Добавлен: 26 фев 2013, 22:54
Размер: 245.24 МБ
Размер: 257 150 670 байт
Сидеров: 39
Личеров: 8
Скачали: 4
Здоровье: 100%
Раздающих: 100%
Скорость скачивания: 0 байт/сек
Скорость раздачи: 0 байт/сек
Последний сидер: 1 месяц 27 дней 8 часов 10 минут 35 секунд назад
Последний личер: 1 месяц 27 дней 8 часов 10 минут 35 секунд назад
Приватный: Нет (DHT включён)
Скачать торрент
Скачать торрент
[ Размер 19.74 КБ / Просмотров 12 ]

Поделиться


Вернуться в Фокусы и трюки