Видео


Сообщение

Видео Resetting Travelers by Michael Feldman [2012, фокусы, DVDRip, ENG] (Видеоурок)

Сообщение Tutorial » 26 фев 2013, 22:55

Resetting Travelers by Michael Feldman[br][/br]Страна: США
Тематика: фокусы
Тип раздаваемого материала: Видеоурок
Продолжительность: 00:39:30
Год выпуска: 2012[br][/br]Язык: Английский
Перевод: Отсутствует[br][/br]Описание: Отличный трюк от Майкла Фелдмана и "Голубой Короны". Никакого реквизита, всё что вам нужно, чтобы удивлять, - это 8 карт и немножко практики.[br][/br]Доп. информация: http://www.youtube.com/watch?v=vxHg-yFK1kc[br][/br]Качество: DVDRip
Формат: MP4
Видео кодек: AVC
Аудио кодек: AAC
Системные требования: 534 мб
Видео: 1760 Кбит/сек, 640*360 (16:9), в 29,970 кадров/сек, AVC
Аудио: 118 Кбит/сек (128 Кбит/сек), 44,1 КГц, 2 Канала, AAC
mediaInfo
Формат : MPEG-4
Профиль формата : QuickTime
Идентификатор кодека : qt
Размер файла : 534 Мбайт
Продолжительность : 39 м.
Общий поток : 1890 Кбит/сек
Дата кодирования : UTC 2012-06-27 17:15:25
Дата пометки : UTC 2012-06-27 17:55:27
Программа кодирования : CoreMediaAuthoring 706, CoreMedia 484.52, i386
Библиотека кодирования : Apple QuickTime[br][/br]Видео
Идентификатор : 2
Формат : AVC
Формат/Информация : Advanced Video Codec
Профиль формата : Main@L3.0
Параметр CABAC формата : Нет
Параметр ReFrames формата : 2 кадра
Идентификатор кодека : avc1
Идентификатор кодека/Информация : Advanced Video Coding
Продолжительность : 39 м.
Битрейт : 1760 Кбит/сек
Ширина : 640 пикселей
Высота : 360 пикселей
Соотношение сторон : 16:9
Режим частоты кадров : Постоянный
Частота кадров : 29,970 кадров/сек
Цветовое пространство : YUV
Субдискретизация насыщенности : 4:2:0
Битовая глубина : 8 бит
Тип развёртки : Прогрессивная
Бит/(Пиксели*Кадры) : 0.255
Размер потока : 497 Мбайт (93%)
Заголовок : Core Media Video
Язык : English
Дата кодирования : UTC 2012-06-27 17:15:25
Дата пометки : UTC 2012-06-27 17:55:27
Основные цвета : BT.601 NTSC
Характеристики трансфера : BT.709
Коэффициенты матрицы : BT.601[br][/br]Аудио
Идентификатор : 1
Формат : AAC
Формат/Информация : Advanced Audio Codec
Профиль формата : LC
Идентификатор кодека : 40
Продолжительность : 39 м.
Продолжительность оригинала : 39 м.
Вид битрейта : Постоянный
Битрейт : 118 Кбит/сек
Номинальный битрейт : 128 Кбит/сек
Каналы : 2 канала
Расположение каналов : Front: L R
Частота : 44,1 КГц
Метод сжатия : С потерями
Размер потока : 33,3 Мбайт (6%)
Размер потока оригинала : 33,3 Мбайт (6%)
Заголовок : Core Media Audio
Язык : English
Дата кодирования : UTC 2012-06-27 17:15:25
Дата пометки : UTC 2012-06-27 17:55:27
Скриншоты

Постеры

Соцсети

 

Статистика

Автор: Tutorial
Добавлен: 26 фев 2013, 22:55
Размер: 534.03 МБ
Размер: 559 971 862 байт
Сидеров: 30
Личеров: 5
Скачали: 1
Здоровье: 100%
Раздающих: 100%
Скорость скачивания: 0 байт/сек
Скорость раздачи: 0 байт/сек
Последний сидер: 1 месяц 27 дней 7 часов 57 минут 46 секунд назад
Последний личер: 1 месяц 27 дней 7 часов 57 минут 46 секунд назад
Приватный: Нет (DHT включён)
Скачать торрент
Скачать торрент
[ Размер 11.02 КБ / Просмотров 8 ]

Поделиться


Вернуться в Фокусы и трюки