Видео


Сообщение

Видео Outside the Box by Nathan Kranzo [2003, ФОкусы, DVDRip, ENG] (Видеоурок)

Сообщение Tutorial » 26 фев 2013, 22:55

Outside the Box by Nathan Kranzo[br][/br]Страна: США
Тематика: ФОкусы
Тип раздаваемого материала: Видеоурок
Продолжительность: 01:03:00
Год выпуска: 2003[br][/br]Язык: Английский
Перевод: Отсутствует[br][/br]Описание: Фокусы с картами и монетами и т.д.
Список фокусов
Queen Routine - рутина с четырьмя дамами, в конце которой одна из дам превращается в выбранную карту.
International 3-Fly - перемещение монет из руки в руку.
Double Sandwich Revelation - после серии катов 2 выбранные зрителем карты оказываются между вальтами.
Hot Sauce - с помощью спички фокусник эффектно материализует пакетик с соусом, а когда он открывает пакетик, то из него идёт дым.
Backasswards Travelers - фокусник находит четырёх тузов, затем кладёт их в разные места в колоде, щёлкает пальцами и тузы оказываются в разных карманах его пиджака. Затем он проделывает те жи манипуляции, но на этот раз в его руках остаются только 4 туза, а остальные карты в разных карманах пиджака.
Peak Vanish - зритель запоминает одну карту из колоды, досчитывает до 3-ёх и в руках фокусника остаётся лишь эта карта.
Jumbo Coin Vanish - небольшая рутина с большой монетой.
Credit Card Vanish and Recovery - исчезновение и чудесное возвращение кредитной карты.
Volcanic Coin Drop - согнутие монеты.
Coin through Silk - рутина с проникновением монеты сквозь платок.
Доп. информация: Превью и описание на английском[br][/br]Качество: DVDRip
Формат: MPG
Видео кодек: MPEG1
Аудио кодек: MP3
Видео: MPG, 355x288, (4:3), 1150kbps, 25fps
Аудио: MP3, 224kbps, 44,1kHz, 2ch
Скриншоты


MediaInfo
Код:
Код: Выделить всё
Общее
Полное имя                               : C:\Users\msi\Downloads\Раздачи\Nathan Kranzo - Outside the Box\Nathan Kranzo - Outside the Box.mpg
Формат                                   : CDXA/MPEG-PS
Размер файла                             : 636 Мбайт
Продолжительность                        : 1 ч. 3 м.
Общий поток                              : 1411 Кбит/сек[br][/br]Видео
Идентификатор                            : 224 (0xE0)
Формат                                   : MPEG Video
Версия формата                           : Version 1
Параметр BVOP формата                    : Да
Параметр матрицы формата                 : По умолчанию
Параметр GOP формата                     : M=3, N=9
Продолжительность                        : 1 ч. 3 м.
Битрейт                                  : 1150 Кбит/сек
Ширина                                   : 352 пикселя
Высота                                   : 288 пикселей
Соотношение сторон                       : 4:3
Частота кадров                           : 25,000 кадров/сек
Стандарт вещания                         : PAL
Цветовое пространство                    : YUV
Битовая глубина                          : 8 бит
Тип развёртки                            : Прогрессивная
Метод сжатия                             : С потерями
Бит/(Пиксели*Кадры)                      : 0.454
Размер потока                            : 522 Мбайт (82%)[br][/br]Аудио
Идентификатор                            : 192 (0xC0)
Формат                                   : MPEG Audio
Версия формата                           : Version 1
Профиль формата                          : Layer 2
Продолжительность                        : 1 ч. 3 м.
Вид битрейта                             : Постоянный
Битрейт                                  : 224 Кбит/сек
Каналы                                   : 2 канала
Частота                                  : 44,1 КГц
Метод сжатия                             : С потерями
Задержка видео                           : -80 мс.
Размер потока                            : 101 Мбайт (16%)

Постеры

Соцсети

 

Статистика

Автор: Tutorial
Добавлен: 26 фев 2013, 22:55
Размер: 635.91 МБ
Размер: 666 801 452 байт
Сидеров: 20
Личеров: 6
Скачали: 1
Здоровье: 100%
Раздающих: 100%
Скорость скачивания: 0 байт/сек
Скорость раздачи: 0 байт/сек
Последний сидер: 1 месяц 27 дней 10 часов 19 минут 39 секунд назад
Последний личер: 1 месяц 27 дней 10 часов 19 минут 39 секунд назад
Приватный: Нет (DHT включён)
Скачать торрент
Скачать торрент
[ Размер 12.91 КБ / Просмотров 13 ]

Поделиться


Вернуться в Фокусы и трюки