Видео


Сообщение

Видео Александр Тулупов | Отрисовка света на фото в Фотошопе в стиле Silent Hill [2013] [PCRec]

Сообщение Nik » 03 май 2013, 16:35

Александр Тулупов | Отрисовка света на фото в Фотошопе в стиле Silent Hill [2013] [PCRec]

Название: Видеоурок по обработке фото (Silent Hill Style)
Автор (режиссер): Александр Тулупов
Год выпуска: 2013
Жанр: Видеоурок
Язык: Русский
Качество видео: PCRec
Продолжительность: 00:07:06
Видеокодек: AVC
Битрейт видео: 2210 Кбит/сек
Размер кадра: 1920x1080
Аудиокодек: AAC
Битрейт аудио: 192 Кбит/сек

Описание:
Видеоурок от Александра Тулупова по отрисовке света на фото в фотошопе в стиле Silent Hill
Общее
Полное имя : C:\Users\admin\Documents\Saduint - Silent Hill Style - Photoshop Tutorial\# 7 Saduint - Silent Hill Style - Photoshop Tutorial.mp4
Формат : MPEG-4
Профиль формата : Base Media / Version 2
Идентификатор кодека : mp42
Размер файла : 122 Мбайт
Продолжительность : 7 м. 6 с.
Режим общего битрейта : Переменный
Общий поток : 2404 Кбит/сек
Дата кодирования : UTC 2013-03-11 22:09:41
Дата пометки : UTC 2013-03-11 22:09:41
gsst : 0
gstd : 426945
gssd : BADC23AE3HH1365008422351158
gshh : r3---sn-n8v7lnes.c.youtube.com

Видео
Идентификатор : 1
Формат : AVC
Формат/Информация : Advanced Video Codec
Профиль формата :
Параметр CABAC формата : Да
Параметр ReFrames формата : 1 кадр
Идентификатор кодека : avc1
Идентификатор кодека/Информация : Advanced Video Coding
Продолжительность : 7 м. 6 с.
Битрейт : 2210 Кбит/сек
Максимальный битрейт : 16,7 Мбит/сек
Ширина : 1920 пикселей
Высота : 1080 пикселей
Соотношение сторон : 16:9
Режим частоты кадров : Постоянный
Частота кадров : 30,000 кадров/сек
Цветовое пространство : YUV
Субдискретизация насыщенности : 4:2:0
Битовая глубина : 8 бит
Тип развёртки : Прогрессивная
Бит/(Пиксели*Кадры) : 0.036
Размер потока : 112 Мбайт (92%)
Дата пометки : UTC 2013-03-11 22:09:49

Аудио
Идентификатор : 2
Формат : AAC
Формат/Информация : Advanced Audio Codec
Профиль формата : LC
Идентификатор кодека : 40
Продолжительность : 7 м. 6 с.
Вид битрейта : Переменный
Битрейт : 192 Кбит/сек
Максимальный битрейт : 203 Кбит/сек
Каналы : 2 канала
Расположение каналов : Front: L R
Частота : 44,1 КГц
Метод сжатия : С потерями
Размер потока : 9,77 Мбайт (8%)
Заголовок : IsoMedia File Produced by Google, 5-11-2011
Дата кодирования : UTC 2013-03-11 22:09:46
Дата пометки : UTC 2013-03-11 22:09:49
Скриншоты:



Время раздачи: 24/7 - круглосуточно

Постеры

Соцсети

 

Статистика

Автор: Nik
Добавлен: 03 май 2013, 16:35
Размер: 122.35 МБ
Размер: 128 292 727 байт
Сидеров: 35
Личеров: 4
Скачали: 2
Здоровье: 100%
Раздающих: 100%
Изменил: Stepan (04 май 2013, 11:30)
Скорость скачивания: 0 байт/сек
Скорость раздачи: 0 байт/сек
Последний сидер: 16 дней 1 час 41 минуту 50 секунд назад
Последний личер: 17 дней 11 часов 32 минуты 48 секунд назад
Приватный: Нет (DHT включён)
Скачать торрент
Скачать торрент
[ Размер 20.05 КБ / Просмотров 29 ]

Поделиться


  • Похожие торренты
    Ответы
    Просмотры
    Последнее сообщение

Вернуться в Adobe Photoshop