Видео


Сообщение

Видео Энди Эмикс - Голуби / Andy Amyx - Doves 101 [Сценическая магия, VHSRip, ENG] (Видеоурок)

Сообщение asder » 15 май 2013, 22:53

Энди Эмикс - Голуби / Andy Amyx - Doves 101
Страна: США
Тематика: Сценическая магия
Тип раздаваемого материала: Видеоурок
Продолжительность: 00:43:00
Язык: Английский
Перевод: Отсутствует

Описание: "A superior video for the beginner or seasoned professional." - Lance Burton
Learn the art of dove stealing from one of the world's finest dove artists. Andy Amyx takes you through all the important techniques including:
- Dove Care and Training
- Sleve Tossing Techniques
- Invisible Harness Techniques
- Dove Bag Techniques
- Tail Technique

"Anyone interested in learning the all important fundementals of Dove Magic will benefit from this tape. Each move --as well as the reason behind each move-- is explained clearly and logically. I highly reccomend it." - Dale Salwak
Доп. информация: Семинар об использовании голубей в сценических шоу. Даны различные техники появления пернатых, а так же советы по уходу за ними.
отчёт MediaInfo
Общее
Полное имя : D:\torrents\Andy Amyx - Dove 101\Andy amyx - Dove 101.avi
Формат : AVI
Формат/Информация : Audio Video Interleave
Размер файла : 301 Мбайт
Продолжительность : 43 м.
Общий поток : 959 Кбит/сек
Видео
Идентификатор : 0
Формат : MPEG-4 Visual
Параметр BVOP формата : Да
Параметр QPel формата : Нет
Параметр GMC формата : Без точки перехода
Параметр матрицы формата : Default (H.263)
Идентификатор кодека : DIVX
Идентификатор кодека/Информация : Project Mayo
Идентификатор кодека/Подсказка : DivX 4
Продолжительность : 43 м.
Продолжительность оригинала : 42 м.
Битрейт : 785 Кбит/сек
Ширина : 720 пикселей
Высота : 480 пикселей
Соотношение сторон : 3:2
Частота кадров : 29,970 кадров/сек
Стандарт вещания : NTSC
Цветовое пространство : YUV
Субдискретизация насыщенности : 4:2:0
Битовая глубина : 8 бит
Тип развёртки : Прогрессивная
Метод сжатия : С потерями
Бит/(Пиксели*Кадры) : 0.076
Размер потока : 239 Мбайт (79%)
Аудио
Идентификатор : 1
Формат : MPEG Audio
Версия формата : Version 1
Профиль формата : Layer 3
Идентификатор кодека : 55
Идентификатор кодека/Подсказка : MP3
Продолжительность : 43 м.
Продолжительность оригинала : 42 м.
Вид битрейта : Постоянный
Битрейт : 192 Кбит/сек
Каналы : 2 канала
Частота : 44,1 КГц
Метод сжатия : С потерями
Задержка видео : 26 мс.
Размер потока : 58,4 Мбайт (19%)
Выравнивание : Разделение по промежуткам
Продолжительность промежутка : 33 мс. (1,00 видеокадр)
Заголовок : Audio Stream
Качество: VHSRip
Формат: AVI
Видео кодек: DivX
Аудио кодек: MP3
Видео: DivX 4, 720х480, 3:2, 785 Кбит/сек, 29,970 кадров/сек
Аудио: MPEG Audio, 192 Кбит/сек, 44,1 КГц, 2 канала
Скриншоты


Постеры

Соцсети

 

Статистика

Автор: asder
Добавлен: 15 май 2013, 22:53
Размер: 300.74 МБ
Размер: 315 350 040 байт
Сидеров: 213
Личеров: 5
Скачали: 4
Здоровье: 100%
Раздающих: 100%
Скорость скачивания: 0 байт/сек
Скорость раздачи: 0 байт/сек
Последний сидер: 1 месяц 25 дней 10 часов 35 минут 49 секунд назад
Последний личер: 1 месяц 25 дней 10 часов 35 минут 49 секунд назад
Приватный: Нет (DHT включён)
Скачать торрент
Скачать торрент
[ Размер 12.29 КБ / Просмотров 21 ]

Поделиться


Вернуться в Фокусы и трюки