Видео


Сообщение

Видео Spider Pen Pro by Yigal Mesika [2012, Левитация, DVD, ENG] (Видеоурок)

Сообщение asder » 15 май 2013, 22:54

Spider Pen Pro by Yigal Mesika
Страна: США
Тематика: Левитация
Тип раздаваемого материала: Видеоурок
Продолжительность: 00:44:12
Год выпуска: 2012
Язык: Английский
Перевод: Отсутствует
Описание: В 2004 году оригинальная ручка Spider Pen стала классикой среди многообразия различных магических устройств из мира фокусников. Благодаря всемирной популярности данного устройства, Yigal Mesika в очередной раз усовершенствовал концепцию классического тянущего устройства. Ручка Spider Pen Pro – не что иное, как революционно новое электронное устройство, с которым ничто не идет в сравнение!
Spider Pen Pro - технологический прорыв в области левитации, позволяющий больше сконцентрироваться на самом трюке, а не способе его исполнения! Что в свою очередь дает безграничные возможности совершенствования искусства левитации и анимации предметов. Левитации с ручкой Spider Pen Pro выглядят настолько невероятно, что по производимому эффекту сравнимы лишь с голливудскими спец. эффектами!
"Это бесподобно!" – Финн Джон (Finn Jon)
Представьте, в процессе обычного разговора Вы просите собеседника одолжить ЛЮБУЮ купюру. И Вы сразу готовы продемонстрировать такую левитацию, которая еще НИКОГДА до этого не выглядела настолько невероятно, как сейчас! Вы кладете купюру на ладонь одной руки и накрываете другой рукой. Начинаете разводить руки в стороны, но купюра не падает вопреки ожиданиям, а остается свободно парить в воздухе! Легким прикосновением Вы заставляете купюру свободно вращаться в воздухе, в то время как сами отходите в сторону. Да, Вы отходите в сторону! Этому нет объяснений! Затем усилием воли Вы заставляете купюру медленно опуститься на пол и лежать неподвижно. После чего, и только тогда когда Вы этого пожелаете, купюра вновь воспаряет, устремляясь вверх, непосредственно в Ваши руки! После исполнения ТАКОЙ левитации, объяснить которую можно лишь привлечением потусторонних сил, невероятная реакция зрителей Вам обеспечена!
Невероятные эффекты с применением данной ручки демонстрировали на американском ТВ лучшие фокусники мира, такие как Cyril, Criss Angel, и многие другие!
Смотрите и учитесь основам левитации и различным нюансам непосредственно под руководством самого Yigal Mesika!
Эффекты:
• Zero Gravity Bill
• Terry Lunceford's Floating Finger Ring
• Floating Straw
• Walking Bill
Дополнительно Вы обучитесь технике безопасного обращения с катушками Spider Spool, что сбережет Вам немало денежных средств. Также Вы научитесь персональному способу Игаля Месики правильной фиксации Невидимых Нитей (НН) воском.
Описание Spider Pen Pro:
• Первое электронное устройство без каких-либо кнопок и переключателей!
• Приводится в действие электронным микро моторчиком.
• Никакого шума – устройство абсолютно беззвучно!
• Работает от одной батарейки типа “AAA”, которая прослужит Вам более года! (при ежедневном использовании, не чаще одного выступления в день, батарейки в комплект не входят.)
• Можно отходить на расстояние до 35 футов от объекта левитации!
• Обеспечено постоянное качественное натяжение, исключающее провисание и раскачивание объектов!
• Никаких пружин или резинок – что позволяет наматывать столько НН (I.T.), сколько потребуется!
• Заменить шпульку также просто как 1-2-3
• Настоящая пишущая ручка, чернила можно менять!
• Ручка сделана из высококачественной стали, покрытой хромом!
• Сменный клип – легко заменить на клип другого цвета
• Метод фиксации – позволяет левитировать и анимировать даже более тяжелые предметы!
• В комплекте обучающий DVD продолжительностью примерно 60 минут в разрешении HD.
• Единственное трюковое устройство, обладающее ТРЕМЯ патентами!
• СДЕЛАНО В США!
ВСЕ ЕЩЕ СОМНЕВАЕТЕСЬ?
• Ручкой Spider Pen Pro легко овладеть и она всегда готова к работе!
• Не похожа ни на одно другое тянущее устройство!
• Вам не нужно ничего прятать от зрителей!
• Устройство универсально!
• Выступайте без рукавов!
• Не требуется никаких ассистентов!
• Выступайте в полном окружении зрителей!!!
DVDRip можно скачать здесь http://rutracker.org/forum/viewtopic.php?t=4333040
Превью:
Качество: DVD
Формат: VOB
Видео: MPEG2 Video 720x480 (16:9) 29.97fps 7700kbps
Аудио: Dolby AC3 48000Hz stereo 192kbps
MediaInfo
Код:
Код: Выделить всё
General
Complete name                            : D:\Video\Yigal Mesika - Spider Pen Pro DVD\VTS_01_1.VOB
Format                                   : MPEG-PS
File size                                : 1 024 MiB
Duration                                 : 23mn 14s
Overall bit rate mode                    : Variable
Overall bit rate                         : 6 158 Kbps[br][/br]Video
ID                                       : 224 (0xE0)
Format                                   : MPEG Video
Format version                           : Version 2
Format profile                           : Main@Main
Format settings, BVOP                    : Yes
Format settings, Matrix                  : Custom
Format settings, GOP                     : M=3, N=12
Duration                                 : 23mn 14s
Bit rate mode                            : Variable
Bit rate                                 : 5 844 Kbps
Maximum bit rate                         : 7 700 Kbps
Width                                    : 720 pixels
Height                                   : 480 pixels
Display aspect ratio                     : 16:9
Frame rate                               : 23.976 fps
Standard                                 : NTSC
Color space                              : YUV
Chroma subsampling                       : 4:2:0
Bit depth                                : 8 bits
Scan type                                : Progressive
Scan order                               : 2:3 Pulldown
Compression mode                         : Lossy
Bits/(Pixel*Frame)                       : 0.705
Stream size                              : 972 MiB (95%)
Color primaries                          : BT.601 NTSC
Transfer characteristics                 : BT.601
Matrix coefficients                      : BT.601[br][/br]Audio
ID                                       : 189 (0xBD)-128 (0x80)
Format                                   : AC-3
Format/Info                              : Audio Coding 3
Mode extension                           : CM (complete main)
Format settings, Endianness              : Big
Muxing mode                              : DVD-Video
Duration                                 : 23mn 14s
Bit rate mode                            : Constant
Bit rate                                 : 192 Kbps
Channel(s)                               : 2 channels
Channel positions                        : Front: L R
Sampling rate                            : 48.0 KHz
Bit depth                                : 16 bits
Compression mode                         : Lossy
Stream size                              : 31.9 MiB (3%)

Скриншоты

Постеры

Соцсети

 

Статистика

Автор: asder
Добавлен: 15 май 2013, 22:54
Размер: 1.96 ГБ
Размер: 2 109 409 280 байт
Сидеров: 283
Личеров: 4
Скачали: 2
Здоровье: 100%
Раздающих: 100%
Скорость скачивания: 0 байт/сек
Скорость раздачи: 0 байт/сек
Последний сидер: 1 месяц 25 дней 7 часов 18 минут 38 секунд назад
Последний личер: 1 месяц 25 дней 7 часов 18 минут 38 секунд назад
Приватный: Нет (DHT включён)
Скачать торрент
Скачать торрент
[ Размер 20.29 КБ / Просмотров 6 ]

Поделиться


Вернуться в Фокусы и трюки