Видео


Сообщение

Видео Jason England - Top Card Cover Pass [2011, DVDRip, ENG] (Видеоурок)

Сообщение asder » 15 май 2013, 22:59

Jason England - Top Card Cover Pass
Страна: USA
Тип раздаваемого материала: Видеоурок
Продолжительность: 00:32:34
Год выпуска: 2011
Язык: Английский
Перевод: Отсутствует
Описание:
Оригинал: The pass is an age old technique for controlling a selected card to the top of the deck. This newer variation of the pass, originally published in 1900 by Clinton Burgess, keeps the top card or couple of cards on top. It can be burned by your spectators, and they still won’t see anything happen.
Перевод: The pass - появившаяся века назад техника контроля выбранной карты наверх колоды. Это новая вариация the pass, первоначально опубликованная в 1900 году Клинтоном Берджессом, оставляет верхнюю карту или несколько карт на вершине. Зрители могут прожигать взглядом ваши движения, но все-равно ничего не заметят.
От себя: Видео, которое не вошло в Foundations. Крайне полезное развитие классического движения. Как и любой pass боится углов, тут улучшений нет. Самое главное здесь, что движение не нужно выполнять быстро, как классический pass.
Смотреть трейлер
Качество: DVDRip
Формат: MOV
MediaInfo:
Общее
Формат : QuickTime
Формат/Информация : Original Apple specifications
Размер файла : 521 Мбайт
Продолжительность : 32 м.
Общий поток : 2238 Кбит/сек
Дата кодирования : UTC 2011-06-10 22:11:16
Дата пометки : UTC 2011-06-10 23:10:31
Библиотека кодирования : Apple QuickTime
Видео
Идентификатор : 1
Формат : AVC
Формат/Информация : Advanced Video Codec
Профиль формата : Baseline@L3.0
Параметр CABAC формата : Нет
Параметр ReFrames формата : 2 кадра
Идентификатор кодека : avc1
Идентификатор кодека/Информация : Advanced Video Coding
Продолжительность : 32 м.
Битрейт : 1978 Кбит/сек
Ширина : 640 пикселей
Высота : 360 пикселей
Соотношение сторон : 16:9
Режим частоты кадров : Постоянный
Частота кадров : 29,970 кадров/сек
Цветовое пространство : YUV
Субдискретизация насыщенности : 4:2:0
Битовая глубина : 8 бит
Тип развёртки : Прогрессивная
Бит/(Пиксели*Кадры) : 0.286
Размер потока : 461 Мбайт (88%)
Язык : English
Дата кодирования : UTC 2011-06-10 22:11:16
Дата пометки : UTC 2011-06-10 23:10:31
Основные цвета : BT.601-6 525, BT.1358 525, BT.1700 NTSC, SMPTE 170M
Характеристики трансфера : BT.709-5, BT.1361
Коэффициенты матрицы : BT.601-6 525, BT.1358 525, BT.1700 NTSC, SMPTE 170M
Аудио
Идентификатор : 2
Формат : AAC
Формат/Информация : Advanced Audio Codec
Профиль формата : LC
Идентификатор кодека : 40
Продолжительность : 32 м.
Вид битрейта : Постоянный
Битрейт : 256 Кбит/сек
Каналы : 2 канала
Расположение каналов : Front: L R
Частота : 48,0 КГц
Метод сжатия : С потерями
Размер потока : 59,6 Мбайт (11%)
Язык : English
Дата кодирования : UTC 2011-06-10 22:11:16
Дата пометки : UTC 2011-06-10 23:10:31
Скриншоты

Постеры

Соцсети

 

Статистика

Автор: asder
Добавлен: 15 май 2013, 22:59
Размер: 521.42 МБ
Размер: 546 752 094 байт
Сидеров: 16
Личеров: 7
Скачали: 3
Здоровье: 100%
Раздающих: 100%
Скорость скачивания: 0 байт/сек
Скорость раздачи: 0 байт/сек
Последний сидер: 1 месяц 27 дней 8 часов 14 минут 52 секунды назад
Последний личер: 1 месяц 27 дней 8 часов 14 минут 52 секунды назад
Приватный: Нет (DHT включён)
Скачать торрент
Скачать торрент
[ Размер 41.32 КБ / Просмотров 26 ]

Поделиться


Вернуться в Фокусы и трюки